<?xml version="1.0" standalone="no"?>
<!DOCTYPE svg PUBLIC "-//W3C//DTD SVG 1.1//EN" "http://www.w3.org/Graphics/SVG/1.1/DTD/svg11.dtd" >
<svg xmlns="http://www.w3.org/2000/svg">
<metadata>Generated by IcoMoon</metadata>
<defs>
<font id="icomoon" horiz-adv-x="1024">
<font-face units-per-em="1024" ascent="960" descent="-64" />
<missing-glyph horiz-adv-x="1024" />
<glyph unicode="&#x20;" horiz-adv-x="512" d="" />
<glyph unicode="&#xe900;" glyph-name="casino" d="M528.599 392.684c-9.001 9.841-24.626 9.754-33.49-0.323l-128.046-145.495c-3.614-4.111-5.608-9.395-5.608-14.868 0-5.468 1.994-10.752 5.608-14.863l128.046-145.5c8.838-10.045 24.454-10.204 33.49-0.323l133.105 145.5c7.864 8.596 7.864 21.78 0 30.377l-133.105 145.495zM444.5 832c-52.132 0-90-43.512-90-96.477 0-67.162 62.046-108.643 142.683-179.205 4.102-3.589 9.367-5.567 14.817-5.567 5.448 0 10.716 1.978 14.817 5.567 80.64 70.564 142.684 112.057 142.684 179.203 0 52.969-37.873 96.479-89.999 96.479-26.609 0-49.828-11.693-67.502-33.9-17.673 22.207-40.891 33.9-67.5 33.9zM353 376.003c49.626 0 90 40.371 90 89.997 0 41.879-28.75 77.168-67.549 87.165 1.777 49.991-38.709 92.835-89.951 92.835-51.24 0-91.728-42.845-89.95-92.835-38.799-9.997-67.55-45.286-67.55-87.165 0-49.626 40.374-89.997 90-89.997 15.806-0.015 31.333 4.163 45 12.099v-57.103h-22.5c-12.426 0-22.5-10.071-22.5-22.497s10.074-22.502 22.5-22.502h90c12.426 0 22.5 10.076 22.5 22.502s-10.074 22.497-22.5 22.497h-22.5v57.103c13.667-7.936 29.194-12.114 45-12.099zM753.316 646.057c-4.101 3.589-9.364 5.566-14.817 5.566-5.448 0-10.711-1.978-14.817-5.566-80.64-70.564-142.679-112.057-142.679-179.205 0-52.972 37.868-96.476 89.999-96.476 16.471 0 31.636 4.49 45 13.174v-52.552h-22.502c-12.426 0-22.497-10.071-22.497-22.497s10.071-22.502 22.497-22.502h89.999c12.426 0 22.502 10.076 22.502 22.502s-10.076 22.497-22.502 22.497h-22.497v52.552c13.363-8.684 28.529-13.174 45-13.174 52.132 0 89.999 43.51 89.999 96.476 0 67.163-62.044 108.644-142.684 179.205z" />
<glyph unicode="&#xe901;" glyph-name="game-shows" d="M512.015 140.012c-38.995 0-76.947 6.789-112.505 19.809v-50.806h-65.994v-45h356.998v45h-65.997v50.806c-35.558-13.020-73.508-19.809-112.502-19.809zM421.288 466.588c0 4.36 0.309 8.652 0.908 12.85l-178.188 73.807c-8.821-27.361-13.571-56.499-13.571-86.657 0-30.215 4.784-59.327 13.632-86.632l178.125 73.782c-0.604 4.257-0.906 8.551-0.906 12.851zM439.456 412.18l-178.113-73.779c26.968-52.521 69.964-95.519 122.486-122.486l73.777 178.115c-6.872 5.166-12.982 11.274-18.15 18.15zM524.861 376.771c-8.52-1.213-17.175-1.213-25.698 0l-73.782-178.125c27.303-8.847 56.419-13.635 86.634-13.635 30.213 0 59.325 4.787 86.63 13.635l-73.784 178.125zM457.606 539.145l-73.85 178.293c-52.867-27-95.723-70.121-122.546-122.609l178.246-73.834c5.168 6.873 11.277 12.983 18.15 18.15zM512.015 420.859c25.252 0 45.722 20.475 45.722 45.728 0 25.254-20.47 45.726-45.722 45.726-25.255 0-45.728-20.472-45.728-45.726 0-25.253 20.472-45.728 45.728-45.728zM566.42 394.010l73.779-178.109c52.521 26.967 95.519 69.965 122.486 122.486l-178.109 73.779c-5.171-6.876-11.279-12.984-18.156-18.156zM584.571 520.978l178.248 73.832c-26.824 52.487-69.678 95.609-122.542 122.609l-73.856-178.291c6.876-5.167 12.984-11.277 18.15-18.15zM461.862 743.681c-12.36-2.21-24.558-5.245-36.512-9.085l73.816-178.206c8.524 1.212 17.176 1.212 25.701 0l73.815 178.204c-11.955 3.841-24.156 6.877-36.516 9.085l-50.15-43.807-50.153 43.809zM602.742 466.571c0-4.361-0.312-8.652-0.911-12.851l178.125-73.78c8.852 27.3 13.635 56.417 13.635 86.631 0 30.158-4.746 59.296-13.573 86.657l-178.186-73.808c0.599-4.197 0.911-8.488 0.911-12.849zM512.015 759.623l51.415 44.91v27.468h-102.831v-27.468l51.416-44.91z" />
<glyph unicode="&#xe902;" glyph-name="fan-tan" d="M839.752 571.75c31.063 0 56.248 25.184 56.248 56.25s-25.185 56.25-56.248 56.25c-31.068 0-56.253-25.184-56.253-56.25s25.185-56.25 56.253-56.25zM839.752 391.752c31.063 0 56.248 25.18 56.248 56.248 0 31.066-25.185 56.25-56.248 56.25-31.068 0-56.253-25.184-56.253-56.25 0-31.068 25.185-56.248 56.253-56.248zM659.748 391.752c31.068 0 56.253 25.18 56.253 56.248 0 31.066-25.185 56.25-56.253 56.25-31.063 0-56.248-25.184-56.248-56.25 0-31.068 25.185-56.248 56.248-56.248zM659.748 571.75c31.068 0 56.253 25.184 56.253 56.25s-25.185 56.25-56.253 56.25c-31.063 0-56.248-25.184-56.248-56.25s25.185-56.25 56.248-56.25zM150.5 322.002h360c12.426 0 22.502 10.071 22.502 22.497v232.501c0 62.132-50.371 112.5-112.502 112.5h-180c-62.132 0-112.5-50.369-112.5-112.5v-232.501c0-12.426 10.074-22.497 22.5-22.497zM420.5 734.5c24.142 0 47.030-5.467 67.5-15.217v60.217c0 12.426-10.074 22.5-22.5 22.5h-270c-12.426 0-22.5-10.074-22.5-22.5v-60.217c20.47 9.75 43.357 15.217 67.5 15.217h180zM873.062 183.107l-723.002-14.121c-12.252-0.236-22.061-10.24-22.061-22.492v-15.872c0-12.257 9.808-22.257 22.061-22.497l723.002-14.121c12.595-0.246 22.938 9.897 22.938 22.497v44.114c0 12.595-10.342 22.743-22.938 22.492z" />
<glyph unicode="&#xe903;" glyph-name="dragon-tiger" d="M347.5 248.556v53.514l-90.855 45.43-35.319 194.407-93.325 28.74c0 0-0.87-76.632 55.354-143.961l-47.979-14.52c0.002 0 57.501-155.5 212.124-163.61zM888.622 412.165l-47.98 14.52c56.228 67.329 55.357 143.961 55.357 143.961l-93.327-28.74-35.318-194.407-90.854-45.43v-53.514c154.604 8.11 212.122 163.61 212.122 163.61zM611.476 769.553c43.172-10.251 80.758-25.839 111.012-41.45 24.248 50.613 68.122 103.897 68.122 103.897-92.329 0-148.291-33.805-179.133-62.447zM301.514 728.103c30.255 15.612 67.841 31.2 111.012 41.45-30.846 28.641-86.806 62.447-179.132 62.447 0 0 43.872-53.284 68.121-103.897zM300.933 617.945c22.999-24.833 54.133-41.051 87.664-45.669l6.326-0.872c45.669-6.289 86.965-28.564 117.078-62.436 30.111 33.871 71.409 56.146 117.074 62.436l6.333 0.872c33.531 4.618 64.66 20.836 87.66 45.669l33.93 36.628c-37.038 26.463-128.44 81.826-244.997 81.826-116.554 0-207.958-55.364-244.993-81.826l33.926-36.628zM631.485 214.124l-52.623-33.352-24.090 38.006 76.713 48.62v62.5l95.601 47.805 40.315 221.923-11.336-12.242c-30.054-32.445-70.733-53.635-114.54-59.67l-6.328-0.871c-43.049-5.928-81.019-30.415-104.177-67.183l-19.038-30.229-19.038 30.229c-23.157 36.768-61.129 61.255-104.176 67.183l-6.326 0.871c-43.812 6.033-84.491 27.225-114.542 59.67l-11.338 12.242 40.317-221.923 95.602-47.805v-62.5l76.713-48.62-24.090-38.006-52.623 33.352v-30.602c0-65.997 53.503-119.501 119.502-119.501 66.002 0 119.501 53.504 119.501 119.501v30.602zM644.844 475.941l17.219-41.575-66.243-27.438-17.219 41.575 66.243 27.438zM361.902 434.365l17.22 41.575 66.243-27.438-17.22-41.575-66.243 27.438z" />
<glyph unicode="&#xe904;" glyph-name="poker" d="M483.589 722.623l-75.62 79.171c-8.993 9.418-21.117 14.77-34.137 15.067-13.047 0.309-25.375-4.492-34.79-13.486l-227.967-217.746c-9.417-8.994-14.768-21.117-15.066-34.137s4.492-25.374 13.486-34.788l147.375-154.295v262.714c0 53.762 43.739 97.501 97.501 97.501h129.218zM891.228 717.004l-305.577 77.489c-12.626 3.206-25.738 1.296-36.931-5.366-11.187-6.663-19.113-17.284-22.313-29.903l-9.277-36.6h152.494c53.76 0 97.5-43.739 97.5-97.501v-485.075c5.228 1.116 10.24 3.082 14.833 5.816 11.187 6.666 19.113 17.285 22.313 29.906l122.23 481.997c6.605 26.057-9.216 52.631-35.272 59.238zM669.624 673.875h-315.252c-26.881 0-48.75-21.869-48.75-48.75v-497.253c0-26.88 21.869-48.748 48.75-48.748h315.252c26.88 0 48.748 21.868 48.748 48.748v497.253c0 26.881-21.868 48.75-48.748 48.75zM420.998 582.873c13.462 0 24.375-10.914 24.375-24.375s-10.913-24.375-24.375-24.375c-13.462 0-24.375 10.914-24.375 24.375s10.914 24.375 24.375 24.375zM511.998 261.125c-5.998-0.005-11.785 2.202-16.252 6.205l-72.685 65.019c-0.164 0.148-0.323 0.297-0.484 0.445-18.237 17.219-27.010 43.264-23.469 69.668 3.367 25.108 17.669 46.661 38.259 57.649 10.002 5.325 20.566 8.021 31.419 8.021 16.465 0 31.514-6.273 43.211-16.782 11.696 10.509 26.744 16.782 43.21 16.782 10.854 0 21.417-2.694 31.401-8.011 20.608-10.998 34.908-32.545 38.277-57.659 3.543-26.404-5.233-52.444-23.465-69.668-0.159-0.148-0.323-0.297-0.486-0.445l-72.684-65.019c-4.465-4.004-10.255-6.216-16.253-6.205zM602.998 170.127c-13.46 0-24.376 10.911-24.376 24.371 0 13.466 10.916 24.376 24.376 24.376s24.376-10.911 24.376-24.376c0-13.46-10.916-24.371-24.376-24.371z" />
<glyph unicode="&#xe905;" glyph-name="blackjack" d="M236.411 257.439l68.854 470.54c1.202 8.197 3.25 16.247 6.112 24.022l-67.451-3.423c-49.18-2.498-87.020-44.387-84.529-93.567l24.11-474.934c2.405-47.386 41.497-84.588 88.943-84.644 1.539 0 3.079 0.036 4.631 0.113l181.606 9.221-121.855 17.833c-64.921 9.58-109.84 69.898-100.421 134.84h0.002zM847.309 712.446c-6.973 9.412-15.744 17.349-25.805 23.35-10.056 6.002-21.207 9.95-32.799 11.615l-352.899 51.637c-48.725 7.135-94.010-26.585-101.138-75.316l-68.857-470.533c-6.655-48.604 26.842-93.583 75.316-101.135l352.905-51.64c48.604-6.661 93.583 26.834 101.135 75.315l68.859 470.535c1.725 11.587 1.137 23.402-1.731 34.761-2.872 11.358-7.967 22.034-14.986 31.411zM681.984 403.113c-42.199-31.421-100.593-58.081-122.138-67.436-5.156-2.248-11.141-1.367-15.447 2.263-17.956 15.13-66.261 57.405-97.689 99.599-75.331 101.141 59.504 201.555 134.829 100.422 101.151 75.315 201.559-59.532 100.403-134.849h0.041z" />
<glyph unicode="&#xe906;" glyph-name="roulette" d="M212.631 235.1c79.74-29.24 186.056-45.343 299.363-45.343s219.619 16.102 299.363 45.343c70.205 25.738 112.026 59.177 116.255 92.524-22.856-23.485-58.772-44.626-106.378-62.080-82.826-30.372-192.65-47.094-309.239-47.094-116.591 0-226.415 16.722-309.238 47.094-47.608 17.454-83.524 38.595-106.381 62.080 4.23-33.347 46.053-66.785 116.256-92.524zM497.658 360.607l-153.533-100.803c47.996-7.572 99.874-11.843 153.533-12.488v113.29zM731.192 269.486c28.836 6.405 55.757 14.116 80.174 23.071 53.914 19.768 91.080 44.078 107.351 69.391-3.118 4.833-6.999 9.636-11.617 14.372h-151.276c9.354-12.401 14.403-27.51 14.387-43.039 0-27.766-15.877-51.881-39.020-63.795zM526.351 247.316c58.322 0.701 114.55 5.678 165.97 14.531-20.716 1.772-38.938 12.375-50.883 28.032l-115.087 71.178v-113.741zM627.666 376.32c-16.445-4.695-34.852-8.253-54.231-10.65l53.345-32.988c-0.005 0.205-0.015 0.404-0.015 0.604-0.020 15.529 5.033 30.638 14.382 43.039l-13.481-0.005zM727.178 634.529c0 4.911 0.497 9.708 1.444 14.346h-116.204v-28.689h116.204c-0.963 4.721-1.449 9.526-1.444 14.344zM798.879 591.43c23.767 0 43.034 19.268 43.034 43.035s-19.267 43.035-43.034 43.035c-23.767 0-43.034-19.267-43.034-43.035s19.267-43.035 43.034-43.035zM105.281 361.846c16.273-25.318 53.44-49.628 107.353-69.391 27.324-10.020 57.772-18.499 90.551-25.313l149.512 98.166c-20.16 2.396-39.312 6.042-56.357 10.906h-279.44c-4.618-4.736-8.5-9.533-11.619-14.367zM927.631 396.227c-3.676 28.739-35.159 57.54-89.585 81.683-57.846 25.663-137.503 43.872-225.633 51.716v-28.587c80.164-6.929 153.088-22.007 211.584-43.839 46.034-17.186 81.157-37.922 103.634-60.972zM339.817 463.312c-48.245-7.842-92.211-18.968-129.787-32.991-20.859-7.788-39.273-16.343-54.891-25.416h183.906c-8.636 8.376-13.533 17.946-13.533 28.687 0 10.87 4.881 20.85 14.305 29.72zM225.097 591.43c23.768 0 43.035 19.268 43.035 43.035s-19.268 43.035-43.035 43.035c-23.768 0-43.035-19.267-43.035-43.035s19.267-43.035 43.035-43.035zM411.587 620.186v28.689h-116.202c0.946-4.638 1.443-9.433 1.443-14.346s-0.499-9.708-1.443-14.345l116.202 0.002zM684.18 463.422c9.421-8.869 14.3-18.847 14.3-29.722 0-10.737-4.89-20.306-13.532-28.687h183.905c-15.616 9.073-34.028 17.628-54.892 25.416-37.576 14.024-81.536 25.153-129.782 32.994zM411.587 501.145v28.587c-88.134-7.842-167.788-26.052-225.638-51.716-54.426-24.143-85.906-52.943-89.583-81.682 22.477 23.050 57.596 43.786 103.636 60.969 58.493 21.835 131.417 36.915 211.585 43.841zM411.587 465.526c-39.421-10-57.379-24.044-57.379-31.826 0-14.602 55.695-43.034 157.792-43.034s157.793 28.431 157.793 43.034c0 7.782-17.961 21.826-57.38 31.826v-3.134c0-29.726-50.432-43.033-100.413-43.033s-100.413 13.307-100.413 43.033v3.134zM821.238 208.246c-82.821-30.372-192.645-47.094-309.238-47.094s-226.415 16.722-309.237 47.094c-47.873 17.551-83.925 38.83-106.763 62.474v-37.847c0-35.169 42.513-70.927 116.638-98.104 79.742-29.24 186.056-45.343 299.362-45.343s219.622 16.102 299.361 45.343c74.127 27.177 116.639 62.935 116.639 98.104v37.847c-22.84-23.644-58.89-44.923-106.762-62.474zM698.47 290.181c23.767 0 43.039 19.267 43.039 43.034s-19.272 43.034-43.039 43.034c-23.767 0-43.034-19.267-43.034-43.034s19.267-43.034 43.034-43.034zM512.005 447.99c42.88 0 67.502 10.577 71.726 15.561v224.915c0 14.316-7.956 27.186-20.762 33.59l-7.931 3.966v31.353c-11.832-5.158-26.619-8.144-43.034-8.144s-31.203 2.986-43.035 8.144v-31.354l-7.928-3.965c-12.805-6.406-20.761-19.274-20.761-33.592v-224.916c4.222-4.981 28.842-15.558 71.724-15.558zM512.005 663.162c15.846 0 28.687-12.844 28.687-28.689s-12.841-28.689-28.687-28.689c-15.845 0-28.689 12.844-28.689 28.689s12.844 28.689 28.689 28.689zM511.997 777.934c23.77 0 43.036 6.423 43.036 14.346s-19.267 14.345-43.036 14.345c-23.768 0-43.035-6.423-43.035-14.345s19.268-14.346 43.035-14.346z" />
<glyph unicode="&#xe907;" glyph-name="sicbo" d="M514.273 547.766c12.662 0 22.927 10.266 22.927 22.929s-10.266 22.929-22.927 22.929c-12.664 0-22.929-10.266-22.929-22.929s10.266-22.929 22.929-22.929zM755.149 547.766c12.662 0 22.927 10.266 22.927 22.929s-10.266 22.929-22.927 22.929c-12.662 0-22.932-10.266-22.932-22.929s10.271-22.929 22.932-22.929zM912.65 607.759l-240.881 240.89c-4.864 4.867-10.644 8.728-17.004 11.362s-13.174 3.99-20.055 3.99c-6.881 0-13.696-1.356-20.055-3.99s-12.14-6.495-17.004-11.362l-240.891-240.89c-4.867-4.867-8.728-10.645-11.362-17.004s-3.99-13.174-3.99-20.057c0-6.883 1.356-13.699 3.99-20.057s6.495-12.137 11.362-17.004l240.891-240.876c4.864-4.869 10.644-8.73 17.004-11.361 6.359-2.637 13.174-3.994 20.055-3.994s13.696 1.357 20.055 3.994c6.359 2.632 12.14 6.492 17.004 11.361l240.881 240.876c4.864 4.867 8.724 10.644 11.361 17.004 2.632 6.359 3.988 13.174 3.988 20.057s-1.357 13.698-3.988 20.057c-2.637 6.359-6.497 12.136-11.361 17.004zM514.33 501.916c-13.603 0-26.903 4.035-38.215 11.593s-20.129 18.302-25.335 30.871c-5.206 12.57-6.568 26.401-3.914 39.744s9.206 25.601 18.826 35.221c9.62 9.62 21.877 16.172 35.221 18.826 13.346 2.654 27.175 1.292 39.745-3.914s23.311-14.023 30.868-25.335c7.562-11.313 11.597-24.612 11.597-38.217-0.020-18.249-7.286-35.743-20.193-48.641-12.913-12.898-30.413-20.144-48.66-20.148h0.061zM755.22 501.916c-13.604 0-26.906 4.035-38.216 11.593s-20.127 18.302-25.334 30.871c-5.207 12.57-6.569 26.401-3.917 39.744 2.657 13.344 9.206 25.601 18.826 35.221s21.878 16.172 35.22 18.826c13.343 2.654 27.177 1.292 39.747-3.914s23.311-14.023 30.868-25.335c7.557-11.313 11.592-24.612 11.592-38.217-0.020-18.249-7.281-35.743-20.193-48.641-12.908-12.898-30.408-20.144-48.66-20.148h0.067zM318.739 212.209c23.518 0 42.583 19.067 42.583 42.583s-19.065 42.583-42.583 42.583c-23.518 0-42.583-19.067-42.583-42.583s19.065-42.583 42.583-42.583zM348.066 477.5h-199.656c-13.9 0-27.231-5.522-37.059-15.35s-15.351-23.161-15.351-37.062v-340.664c0-13.901 5.522-27.228 15.351-37.059s23.159-15.35 37.059-15.35h340.666c13.9 0 27.23 5.519 37.061 15.35 9.825 9.83 15.35 23.158 15.35 37.059v199.654l-193.42 193.422zM318.743 166.313c-17.492 0-34.592 5.187-49.136 14.909-14.544 9.718-25.88 23.526-32.574 39.69-6.694 16.159-8.445 33.94-5.032 51.098s11.835 32.916 24.204 45.286c12.369 12.365 28.128 20.792 45.284 24.202 17.156 3.415 34.939 1.664 51.1-5.033 16.161-6.692 29.974-18.028 39.691-32.573s14.905-31.642 14.905-49.137c-0.028-23.444-9.355-45.926-25.935-62.505-16.58-16.584-39.059-25.907-62.507-25.938z" />
<glyph unicode="&#xe908;" glyph-name="baccarat" d="M591.703 832h-412.18c-28.389 0-51.523-22.989-51.523-51.2v-665.6c0-28.262 23.134-51.2 51.523-51.2h412.18c28.442 0 51.523 22.938 51.523 51.2v665.6c0 28.211-23.081 51.2-51.523 51.2zM443.577 371.2c-10.975 0-21.794 2.048-32.202 5.376v-56.576h25.761c14.22 0 25.761-11.469 25.761-25.6s-11.541-25.6-25.761-25.6h-103.046c-14.22 0-25.761 11.469-25.761 25.6s11.541 25.6 25.761 25.6h25.761v56.576c-10.407-3.328-21.228-5.376-32.202-5.376-54.151 0-96.605 40.141-96.605 91.443 0 67.226 107.786 139.93 140.812 160.614 8.347 5.171 18.909 5.274 27.256 0.102 23.597-14.387 141.067-90.061 141.067-160.717 0-51.302-42.453-91.443-96.603-91.443zM766.264 750.746l-71.511 19.046v-482.099l107.94 400.333c7.368 27.29-8.965 55.398-36.429 62.72zM870.236 602.931l-32.148 18.432-88.673-328.806 139.679 240.435c14.223 24.525 5.77 55.808-18.857 69.939z" />
<glyph unicode="&#xe909;" glyph-name="default" d="M493.913 365.21c0 17.172-6.817 33.633-18.962 45.757-6.006 6.011-13.138 10.783-20.989 14.034-7.852 3.256-16.267 4.931-24.766 4.925h-151.008c-17.171 0-33.632-6.815-45.755-18.959-6.014-6.006-10.784-13.138-14.038-20.992-3.254-7.849-4.927-16.266-4.924-24.765v-151.009c0-17.172 6.817-33.628 18.962-45.752 6.005-6.016 13.138-10.788 20.989-14.039 7.851-3.256 16.267-4.931 24.766-4.925h151.008c17.172 0 33.632 6.815 45.756 18.964 6.014 6.006 10.784 13.138 14.038 20.987 3.254 7.854 4.927 16.266 4.924 24.765v151.009zM817.5 365.21c0 17.172-6.815 33.633-18.959 45.757-6.006 6.011-13.138 10.783-20.992 14.034-7.849 3.256-16.266 4.931-24.765 4.925h-151.009c-17.167 0-33.628-6.815-45.752-18.959-6.016-6.006-10.788-13.138-14.039-20.992-3.256-7.849-4.925-16.266-4.925-24.765v-151.009c0-17.172 6.82-33.628 18.964-45.752 6.006-6.016 13.138-10.788 20.987-14.039 7.854-3.256 16.266-4.931 24.765-4.925h151.009c17.172 0 33.633 6.815 45.757 18.964 6.011 6.006 10.783 13.138 14.039 20.987 3.251 7.854 4.925 16.266 4.92 24.765v151.009zM723.036 477.538l89.999 90.001c12.134 12.136 18.949 28.595 18.949 45.756s-6.815 33.619-18.949 45.755l-89.999 90.001c-12.134 12.133-28.595 18.949-45.757 18.949-17.157 0-33.618-6.816-45.752-18.949l-90.004-90.001c-12.129-12.136-18.949-28.595-18.949-45.755s6.82-33.619 18.949-45.756l90.004-90.001c12.134-12.132 28.595-18.949 45.752-18.949 17.162 0 33.623 6.816 45.757 18.949zM493.913 688.799c0 17.172-6.817 33.632-18.962 45.755-6.006 6.014-13.138 10.784-20.989 14.038s-16.267 4.927-24.766 4.924h-151.008c-17.171 0-33.632-6.817-45.755-18.962-6.014-6.005-10.784-13.138-14.038-20.989s-4.927-16.267-4.924-24.766v-151.008c0-17.172 6.817-33.632 18.962-45.756 6.005-6.013 13.138-10.784 20.989-14.038s16.267-4.927 24.766-4.924h151.008c17.172 0 33.632 6.817 45.756 18.962 6.014 6.006 10.784 13.138 14.038 20.989s4.927 16.267 4.924 24.766v151.008z" />
<glyph unicode="&#xe90a;" glyph-name="edit-file" d="M378.655 113.233c-17.723 0-32.82 6.238-45.292 18.709s-18.707 27.567-18.707 45.291v68.1c0 10.995 3.678 20.173 11.036 27.529s16.533 11.038 27.529 11.038h84.514v117.333c-22.429-1.587-45.362 0.67-68.802 6.767-23.44 6.101-43.802 16.892-61.088 32.371-3.993 3.994-7.166 8.384-9.518 13.167-2.352 4.787-3.527 9.89-3.527 15.305v36.595h-38.729c-5.142 0-10.038 0.93-14.688 2.79s-8.971 4.787-12.963 8.777l-89.025 89.027c-7.986 7.987-11.774 17.259-11.364 27.816s4.745 19.555 13.005 26.994c20.623 17.613 46.304 30.604 77.047 38.973s59.869 12.554 87.383 12.554c23.303 0 45.936-2.653 67.899-7.959s43.419-14.059 64.371-26.257v7.795c0 16.902 5.892 31.248 17.681 43.036s26.133 17.682 43.038 17.682h331.482c21.278 0 39.454-7.535 54.524-22.605s22.605-33.244 22.605-54.523v-449.639c0-29.811-10.325-55.044-30.972-75.691-20.651-20.651-45.884-30.976-75.695-30.976h-421.742zM501.73 283.9h218.257c10.449 0 19.349-3.682 26.709-11.038 7.356-7.356 11.034-16.26 11.034-26.705v-26.257c0-12.087 4.092-22.221 12.267-30.4 8.179-8.179 18.313-12.267 30.4-12.267 12.092 0 22.225 4.087 30.4 12.267 8.179 8.179 12.267 18.313 12.267 30.4v449.639c0 3.829-1.229 6.975-3.691 9.437s-5.606 3.692-9.438 3.692h-315.072c-3.831 0-6.976-1.231-9.438-3.692s-3.695-5.608-3.695-9.437v-33.806l236.471-236.471c4.762-4.757 7.714-10.202 8.862-16.329s0.358-12.143-2.377-18.052c-2.739-5.905-6.485-10.624-11.243-14.153-4.762-3.529-10.884-5.291-18.381-5.291-4.322 0-8.465 0.905-12.429 2.705-3.968 1.809-7.317 4.079-10.052 6.814l-116.186 116.181-16.329-16.329c-9.135-9.135-18.462-17.062-27.977-23.791-9.519-6.729-19.639-12.228-30.362-16.495v-130.624zM267.229 569.436h53.005c10.994 0 20.17-3.679 27.528-11.036s11.036-16.533 11.036-27.529v-49.067c11.542-7.33 22.756-12.335 33.641-15.014s21.716-4.019 32.493-4.019c17.996 0 34.256 2.897 48.78 8.695s28.459 15.373 41.805 28.719l15.919 15.919-67.119 67.118c-21.717 21.716-46.057 38.003-73.025 48.861s-55.576 16.287-85.826 16.287c-17.505 0-34.367-1.887-50.586-5.662s-31.412-8.889-45.58-15.344l57.929-57.929z" />
<glyph unicode="&#xe90b;" glyph-name="money-history" d="M213.333 547.648c0 156.794 127.162 284.352 283.477 284.352 129.399 0 238.549-87.503 272.418-206.559-6.191-6.724-10.526-15.251-11.738-24.905l-3.098-24.812-5.252-28.104-28.971 0.030c0 123.553-100.215 224.067-223.36 224.067-123.183 0-223.393-100.516-223.393-224.067 0-83.808 46.192-156.891 114.294-195.33l-43.683-43.81c-78.479 50.633-130.694 138.799-130.694 239.139zM809.724 593.389c-0.209 7.883-6.438 14.273-14.268 14.677-7.505 0.432-14.682-5.324-15.671-13.177l-3.204-25.707-5.619-30.016c-2.321-10.411-4.71-21.172-9.169-32.867l-6.733-19.763-9.549-21.060c-3.409-8.636-8.585-17.331-14.071-26.543-2.782-4.659-5.594-9.365-8.23-14.182-2.765-3.746-5.47-7.548-8.154-11.383-7.078-9.997-13.743-19.443-22.69-28.851-7.774-9.732-17.101-18.432-26.94-27.635-2.901-2.714-5.781-5.406-8.631-8.141-3.196-2.436-6.362-4.902-9.489-7.351-10.466-8.179-20.314-15.885-32.055-22.647-9.054-6.332-19.405-11.456-29.393-16.38-4.173-2.065-8.32-4.109-12.335-6.212-5.094-1.839-10.057-3.814-14.946-5.781-9.152-3.665-17.788-7.117-26.94-9.143l-19.866-5.521-19.524-3.345c-9.937-2.142-18.679-2.633-27.149-3.145l-15.915-1.22-2.249 0.060v70.315c0 6.084-3.657 11.593-9.276 13.931-5.636 2.321-12.068 1.041-16.385-3.264l-129.259-129.66c-2.812-2.829-4.395-6.665-4.395-10.654s1.583-7.825 4.395-10.654l129.262-129.664c2.882-2.871 6.723-4.403 10.627-4.403 1.937 0 3.9 0.375 5.76 1.139 5.619 2.342 9.276 7.846 9.276 13.943v73.481l27.665 5.082c12.791 2.654 28.723 5.978 43.977 11.652l17.783 5.986 29.478 12.506c12.425 4.915 24.196 11.814 35.575 18.487 4.86 2.863 9.779 5.743 14.797 8.503 0.546 0.307 1.058 0.64 1.587 1.003 3.921 2.833 7.898 5.623 11.908 8.422 12.143 8.457 24.674 17.216 35.405 27.332 13.252 10.586 24.823 22.852 36.015 34.731l8.124 8.572c0.346 0.375 0.687 0.755 1.020 1.169l7.351 9.327c10.005 12.621 20.382 25.715 28.203 39.147 8.781 12.582 15.386 25.694 21.777 38.396 2.197 4.386 4.39 8.73 6.626 12.979 0.294 0.589 0.58 1.178 0.802 1.788 2.001 5.385 4.134 10.645 6.251 15.808 4.663 11.439 9.481 23.253 12.194 34.854l6.938 24.725 3.942 21.747c3.14 14.332 4.053 27.447 4.86 39.015l1.451 19.67-0.943 39.925zM502.848 678.378c-74.598 0-135.101-60.189-135.101-134.4 0-74.209 60.503-134.399 135.101-134.399s135.104 60.19 135.104 134.399c0 74.211-60.506 134.4-135.104 134.4zM541.696 490.97c-5.845-7.181-13.581-11.968-22.515-14.362-3.955-1.028-5.675-3.081-5.504-7.181 0.175-3.934 0-7.868 0-11.972 0-3.588-1.89-5.47-5.325-5.47-4.301-0.171-8.597-0.171-12.894 0-3.78 0-5.5 2.223-5.5 5.811 0 2.91 0 5.815 0 8.721 0 6.327-0.346 6.669-6.532 7.697-7.906 1.195-15.642 3.076-22.861 6.498-5.67 2.735-6.362 4.1-4.642 10.086 1.203 4.446 2.406 8.892 3.785 13.167 1.545 5.129 2.918 5.641 7.731 3.247 8.081-4.1 16.503-6.498 25.442-7.522 5.67-0.683 11.345-0.171 16.674 2.223 9.967 4.275 11.516 15.731 3.093 22.571-2.923 2.394-6.016 4.105-9.455 5.474-8.768 3.76-17.877 6.667-25.954 11.626-13.41 7.866-21.833 18.809-20.8 35.053 1.033 18.296 11.516 29.582 28.361 35.738 6.878 2.565 7.049 2.394 7.049 9.576 0 2.394 0 4.959 0 7.353 0.171 5.472 1.033 6.327 6.532 6.498 1.719 0 3.439 0 4.983 0 11.691 0 11.691 0 11.691-11.628 0-8.208 0-8.208 8.247-9.405 6.191-1.026 12.207-2.736 18.048-5.301 3.268-1.368 4.471-3.591 3.439-7.011-1.374-4.959-2.748-10.089-4.467-14.877-1.549-4.617-3.093-5.3-7.565-3.249-9.109 4.446-18.564 6.156-28.531 5.643-2.581-0.171-5.158-0.513-7.565-1.539-8.593-3.762-10.142-13.337-2.748-19.151 3.78-2.907 7.906-5.13 12.373-7.011 7.735-3.078 15.3-6.156 22.69-10.26 22.69-12.482 29.047-41.38 12.719-61.045z" />
<glyph unicode="&#xe90c;" glyph-name="logout" d="M247.795 64c-21.552 0-39.795 7.467-54.729 22.4s-22.4 33.178-22.4 54.729v571.076c0 21.552 7.467 39.795 22.4 54.729s33.176 22.4 54.729 22.4h253.948c9.079 0 16.683-3.063 22.81-9.19s9.19-13.729 9.19-22.81c0-9.080-3.063-16.684-9.19-22.81s-13.73-9.19-22.81-9.19h-253.948c-3.282 0-6.292-1.367-9.027-4.102s-4.102-5.745-4.102-9.027v-571.076c0-3.281 1.367-6.289 4.102-9.024s5.745-4.105 9.027-4.105h253.948c9.079 0 16.683-3.063 22.81-9.19 6.127-6.123 9.19-13.726 9.19-22.81 0-9.079-3.063-16.683-9.19-22.81s-13.73-9.19-22.81-9.19h-253.948zM773.005 394.667h-331.571c-9.079 0-16.682 3.063-22.809 9.19s-9.19 13.73-9.19 22.81c0 9.079 3.063 16.683 9.19 22.81s13.729 9.19 22.809 9.19h331.571l-82.052 82.051c-5.905 5.908-8.93 13.115-9.067 21.62s2.889 16.068 9.067 22.687c6.182 6.618 13.675 10.037 22.481 10.256s16.521-2.981 23.138-9.6l132.019-132.019c7.714-7.714 11.571-16.713 11.571-26.995s-3.857-19.281-11.571-26.995l-132.019-132.019c-6.345-6.345-13.879-9.476-22.605-9.395-8.721 0.085-16.393 3.435-23.014 10.052-6.178 6.622-9.161 14.225-8.943 22.81 0.222 8.589 3.422 15.974 9.6 22.153l81.395 81.395z" />
<glyph unicode="&#xe90d;" glyph-name="info" d="M128 426.709c0.434 226.475 185.019 407.554 409.685 405.269 219.153-2.266 400.943-179.946 400.981-405.363 0-227.61-186.266-407.898-410.138-405.252-218.512 2.53-400 180.019-400.529 405.346zM411.57 454.127c2.756 0.964 4.418 1.51 6.060 2.116 15.219 5.534 30.698 8.704 46.993 5.798 12.723-2.287 19.311-8.179 20.049-21.039 0.567-10.176 0.678-20.77-1.664-30.63-7.023-29.308-15.1-58.33-23.219-87.377-6.421-23.262-13.35-46.302-15.104-70.626-2.436-34.479 15.347-60.578 48.67-69.871 18.692-5.559 38.524-6.059 57.472-1.434 22.050 5.666 43.307 14.485 64.87 22.037 0.542 0.239 1.028 0.589 1.429 1.028s0.704 0.956 0.892 1.523c2.206 8.495 4.245 16.994 6.345 25.626-0.367 0.077-0.742 0.119-1.118 0.132-1.51-0.495-3.038-0.986-4.527-1.515-15.258-5.286-30.699-8.61-47.010-5.815-14.144 2.436-21.299 8.858-21.73 23.151-0.503 11.145 0.457 22.306 2.85 33.199 6.605 27.571 14.366 54.878 21.973 82.202 6.78 24.439 14.012 48.627 15.292 74.33 1.493 29.722-13.099 54.255-40.986 64.734-18.577 6.989-37.854 7.556-57.225 4.459-24.695-4.041-47.65-13.675-70.778-22.66-0.715-0.273-1.368-0.683-1.92-1.212s-0.99-1.165-1.29-1.869c-2.152-8.384-4.059-16.823-6.324-26.287zM631.253 617.664c0.273 10.545-2.65 20.926-8.384 29.78-20.070 31.102-64.55 38.278-93.414 15.107-22.524-18.129-29.111-46.814-15.39-70.985 10.594-18.657 27.396-28.571 48.713-31.102 35.661-4.287 68.041 22.699 68.476 57.2z" />
<glyph unicode="&#xe90e;" glyph-name="user" d="M533.333 448.004c-41.19 0-76.378 14.592-105.562 43.772-29.181 29.184-43.772 64.369-43.772 105.558s14.591 76.376 43.772 105.559c29.184 29.183 64.371 43.774 105.562 43.774 41.186 0 76.373-14.591 105.557-43.774s43.776-64.369 43.776-105.559c0-41.189-14.592-76.374-43.776-105.558-29.184-29.18-64.371-43.772-105.557-43.772zM213.333 187.9v30.029c0 20.898 5.676 40.247 17.026 58.052s26.516 31.492 45.496 41.067c42.175 20.676 84.719 36.186 127.631 46.524s86.194 15.505 129.847 15.505c43.648 0 86.933-5.167 129.843-15.505 42.914-10.338 85.457-25.847 127.633-46.524 18.978-9.574 34.146-23.262 45.495-41.067s17.028-37.154 17.028-58.052v-30.029c0-17.997-6.306-33.297-18.914-45.905s-27.913-18.914-45.905-18.914h-510.362c-17.996 0-33.298 6.306-45.906 18.914s-18.913 27.908-18.913 45.905z" />
<glyph unicode="&#xe90f;" glyph-name="lock" d="M290.462 42.671c-21.21 0-39.368 7.552-54.472 22.656s-22.657 33.263-22.657 54.473v400.405c0 21.213 7.552 39.369 22.657 54.473s33.261 22.657 54.472 22.657h50.871v85.333c0 53.278 18.68 98.597 56.041 135.957s82.682 56.041 135.959 56.041c53.278 0 98.598-18.68 135.957-56.041s56.043-82.679 56.043-135.957v-85.333h50.867c21.214 0 39.369-7.552 54.473-22.657s22.66-33.261 22.66-54.473v-400.405c0-21.21-7.556-39.369-22.66-54.473s-33.259-22.656-54.473-22.656h-485.739zM533.333 245.338c20.732 0 38.357 7.262 52.881 21.786 14.524 14.519 21.786 32.149 21.786 52.881s-7.262 38.357-21.786 52.881c-14.524 14.524-32.149 21.781-52.881 21.781s-38.362-7.258-52.881-21.781c-14.524-14.524-21.786-32.149-21.786-52.881s7.262-38.362 21.786-52.881c14.519-14.524 32.149-21.786 52.881-21.786zM405.332 597.335h256.001v85.333c0 35.555-12.446 65.778-37.333 90.667-24.892 24.889-55.113 37.333-90.667 37.333-35.558 0-65.779-12.445-90.667-37.333-24.89-24.889-37.335-55.111-37.335-90.667v-85.333z" />
<glyph unicode="&#xe910;" glyph-name="bank-check" d="M681.481 2.372c-144.004 0-260.741 113.199-260.741 252.838s116.736 252.838 260.741 252.838c144 0 260.74-113.199 260.74-252.838s-116.74-252.838-260.74-252.838zM622.737 147.678c14.178-13.756 37.197-13.756 51.383 0l160.614 155.75c6.814 6.609 10.641 15.569 10.641 24.913 0 9.34-3.827 18.304-10.641 24.909-14.182 13.756-37.201 13.756-51.379 0l-128.435-124.54c-3.584-3.469-9.399-3.469-12.979 0l-47.433 45.986c-14.187 13.756-37.201 13.756-51.379 0-14.187-13.747-14.187-36.070 0-49.818l79.607-77.201zM887.010 677.482l-402.901 194.607c-7.091 3.437-15.458 3.437-22.549 0l-402.902-194.607h828.353zM115.061 530.816c-6.514 0-13.1 2.59-17.833 7.197-5.131 4.974-43.462 43.686-54.562 90.58h860.437c-11.098-46.894-49.429-85.606-54.558-90.58-4.736-4.608-11.319-7.197-17.835-7.197l-18.244 0.017c-39.846 17.835-84.22 27.785-130.987 27.785-46.771 0-91.14-9.95-130.987-27.785l-435.433-0.017zM473.54 481.924h-76.227v-99.554c18.173 38.123 44.265 71.97 76.227 99.554zM392.762 138.074h-293.717c-7.361 0-14.352-3.127-19.128-8.546-7.459-8.401-25.824-30.746-35.646-56.218-2.904-7.518-1.822-15.919 2.906-22.511 4.702-6.562 12.431-10.5 20.703-10.5h392.738c-28.736 27.772-51.937 60.928-67.855 97.775zM143.5 481.924h152.93v-294.959h-152.93v294.959z" />
<glyph unicode="&#xe911;" glyph-name="password" d="M121.436 284.941h768.002c9.067 0 16.666-3.068 22.797-9.203 6.135-6.135 9.199-13.739 9.199-22.81s-3.063-16.67-9.199-22.797c-6.131-6.127-13.73-9.19-22.797-9.19h-768.002c-9.067 0-16.666 3.068-22.799 9.203s-9.201 13.739-9.201 22.81 3.066 16.67 9.199 22.797c6.133 6.127 13.734 9.19 22.801 9.19zM164.102 545.537l-26.010-46.115c-3.392-6.229-8.478-10.193-15.261-11.891s-13.28-0.849-19.49 2.551c-6.21 3.401-10.162 8.503-11.856 15.305s-0.817 13.291 2.629 19.473l26.010 46.112h-52.021c-7.348 0-13.424 2.401-18.229 7.202s-7.206 10.872-7.206 18.214c0 7.343 2.403 13.42 7.208 18.235 4.804 4.813 10.88 7.22 18.228 7.22h52.021l-26.010 43.98c-3.446 6.181-4.322 12.672-2.629 19.473s5.646 11.902 11.856 15.302c6.21 3.401 12.707 4.251 19.49 2.552s11.869-5.663 15.261-11.892l26.010-43.981 26.010 43.981c3.392 6.229 8.478 10.193 15.261 11.892s13.28 0.848 19.49-2.552c6.21-3.401 10.162-8.501 11.856-15.302s0.818-13.292-2.628-19.473l-26.011-43.98h52.021c7.348 0 13.424-2.4 18.228-7.202 4.805-4.8 7.207-10.872 7.207-18.214s-2.403-13.42-7.207-18.234c-4.804-4.814-10.88-7.22-18.228-7.22h-52.021l26.011-46.112c3.446-6.182 4.322-12.672 2.628-19.473s-5.646-11.904-11.856-15.305c-6.21-3.401-12.707-4.25-19.49-2.551s-11.869 5.662-15.261 11.891l-26.010 46.115zM505.438 545.537l-26.014-46.115c-3.392-6.229-8.478-10.193-15.258-11.891-6.784-1.698-13.282-0.849-19.49 2.551-6.212 3.401-10.163 8.503-11.857 15.305s-0.819 13.291 2.628 19.473l26.010 46.112h-52.021c-7.348 0-13.424 2.401-18.228 7.202s-7.208 10.872-7.208 18.214c0 7.343 2.403 13.42 7.208 18.235 4.804 4.813 10.88 7.22 18.228 7.22h52.021l-26.010 43.98c-3.447 6.181-4.322 12.672-2.628 19.473s5.645 11.902 11.857 15.302c6.208 3.401 12.706 4.251 19.49 2.552 6.78-1.699 11.866-5.663 15.258-11.892l26.014-43.981 26.010 43.981c3.392 6.229 8.478 10.193 15.262 11.892 6.78 1.699 13.278 0.848 19.49-2.552 6.208-3.401 10.159-8.501 11.853-15.302s0.819-13.292-2.628-19.473l-26.010-43.98h52.023c7.347 0 13.423-2.4 18.227-7.202 4.804-4.8 7.206-10.872 7.206-18.214s-2.402-13.42-7.206-18.234c-4.804-4.814-10.88-7.22-18.227-7.22h-52.023l26.010-46.112c3.447-6.182 4.322-12.672 2.628-19.473s-5.645-11.904-11.853-15.305c-6.212-3.401-12.71-4.25-19.49-2.551-6.784 1.698-11.87 5.662-15.262 11.891l-26.010 46.115zM846.771 545.537l-26.014-46.115c-3.392-6.229-8.478-10.193-15.258-11.891-6.784-1.698-13.282-0.849-19.49 2.551-6.212 3.401-10.163 8.503-11.857 15.305s-0.819 13.291 2.628 19.473l26.010 46.112h-52.019c-7.351 0-13.427 2.401-18.231 7.202s-7.206 10.872-7.206 18.214c0 7.343 2.402 13.42 7.206 18.235 4.804 4.813 10.88 7.22 18.231 7.22h52.019l-26.010 43.98c-3.447 6.181-4.322 12.672-2.628 19.473s5.645 11.902 11.857 15.302c6.208 3.401 12.706 4.251 19.49 2.552 6.78-1.699 11.866-5.663 15.258-11.892l26.014-43.981 26.010 43.981c3.392 6.229 8.478 10.193 15.262 11.892 6.78 1.699 13.278 0.848 19.49-2.552 6.208-3.401 10.159-8.501 11.853-15.302s0.819-13.292-2.628-19.473l-26.010-43.98h52.023c7.347 0 13.423-2.4 18.227-7.202 4.804-4.8 7.206-10.872 7.206-18.214s-2.402-13.42-7.206-18.234c-4.804-4.814-10.88-7.22-18.227-7.22h-52.023l26.010-46.112c3.447-6.182 4.322-12.672 2.628-19.473s-5.645-11.904-11.853-15.305c-6.212-3.401-12.71-4.25-19.49-2.551-6.784 1.698-11.87 5.662-15.262 11.891l-26.010 46.115z" />
<glyph unicode="&#xe912;" glyph-name="account-box" d="M533.333 382.357c38.507 0 71.245 13.487 98.214 40.452 26.965 26.97 40.452 59.708 40.452 98.214 0 38.511-13.487 71.249-40.452 98.217-26.97 26.967-59.708 40.451-98.214 40.451-38.511 0-71.249-13.484-98.214-40.451-26.968-26.967-40.452-59.706-40.452-98.217 0-38.507 13.484-71.245 40.452-98.214 26.965-26.965 59.703-40.452 98.214-40.452zM247.795 64c-21.552 0-39.795 7.467-54.729 22.4s-22.4 33.178-22.4 54.729v571.076c0 21.552 7.467 39.795 22.4 54.729s33.176 22.4 54.729 22.4h571.076c21.551 0 39.795-7.467 54.729-22.4s22.4-33.176 22.4-54.729v-571.076c0-21.551-7.467-39.795-22.4-54.729s-33.178-22.4-54.729-22.4h-571.076zM243.692 128h579.28c3.008 2.957 5.060 9.562 6.157 19.814 1.092 10.257 2.048 17.271 2.871 21.047-38.4 37.687-83.025 67.379-133.867 89.067-50.846 21.687-105.779 32.533-164.8 32.533-59.025 0-113.957-10.846-164.801-32.533s-95.467-51.379-133.867-89.067c0.821-3.776 1.778-10.79 2.873-21.047 1.094-10.253 3.145-16.858 6.154-19.814z" />
<glyph unicode="&#xe913;" glyph-name="check" d="M427.857 283.034l368.576 368.572c6.345 6.345 13.879 9.587 22.605 9.724s16.397-3.104 23.014-9.724c6.618-6.618 9.929-14.221 9.929-22.81 0-8.587-3.311-16.19-9.929-22.81l-387.2-387.2c-7.714-7.71-16.713-11.567-26.995-11.567s-19.281 3.857-26.993 11.567l-178.133 178.133c-6.345 6.345-9.477 13.879-9.395 22.605s3.433 16.397 10.051 23.014c6.619 6.618 14.223 9.929 22.81 9.929 8.588 0 16.192-3.311 22.81-9.929l158.852-159.505z" />
<glyph unicode="&#xe914;" glyph-name="visibility" d="M520.465 274.052c48.346 0 89.408 16.922 123.183 50.765 33.779 33.843 50.667 74.935 50.667 123.281s-16.922 89.406-50.761 123.184c-33.843 33.778-74.935 50.667-123.281 50.667s-89.408-16.921-123.186-50.762c-33.778-33.843-50.667-74.939-50.667-123.284 0-48.341 16.921-89.404 50.763-123.183 33.844-33.775 74.936-50.667 123.282-50.667zM520.367 332.8c-32 0-59.2 11.2-81.6 33.6-22.399 22.4-33.599 49.6-33.599 81.6s11.2 59.2 33.599 81.6c22.4 22.401 49.6 33.601 81.6 33.601s59.2-11.2 81.6-33.601c22.4-22.4 33.6-49.6 33.6-81.6s-11.2-59.2-33.6-81.6c-22.4-22.4-49.6-33.6-81.6-33.6zM520.367 149.333c-89.818 0-171.964 23.962-246.438 71.881-74.476 47.915-133.921 110.959-178.338 189.124-3.555 6.127-6.154 12.301-7.795 18.526-1.641 6.221-2.462 12.608-2.462 19.157s0.82 12.928 2.462 19.136c1.641 6.212 4.24 12.378 7.795 18.505 44.417 78.167 103.863 141.21 178.338 189.127 74.475 47.919 156.621 71.878 246.438 71.878s171.964-23.959 246.438-71.878c74.479-47.917 133.922-110.96 178.338-189.127 3.558-6.127 6.157-12.301 7.795-18.522 1.643-6.225 2.462-12.612 2.462-19.162s-0.819-12.928-2.462-19.136c-1.638-6.208-4.237-12.378-7.795-18.505-44.416-78.165-103.859-141.21-178.338-189.124-74.475-47.919-156.621-71.881-246.438-71.881z" />
<glyph unicode="&#xe915;" glyph-name="visibility-off" d="M851.115 34.795l-172.634 171.319c-25.161-9.737-51.021-16.764-77.581-21.086-26.556-4.322-53.538-6.481-80.943-6.481-89.818 0-172.074 23.889-246.768 71.671-74.694 47.778-133.894 110.754-177.6 188.919-3.555 6.127-6.153 12.365-7.794 18.709s-2.462 12.8-2.462 19.362c0 6.566 0.889 13.090 2.667 19.571s4.445 12.651 8 18.505c17.012 28.278 35.090 55.642 54.236 82.091s41.409 49.846 66.79 70.194l-118.155 119.467 44.964 44.963 752.245-752.243-44.966-44.962zM519.957 303.262c9.463 0 18.505 0.563 27.119 1.685s17.024 3.567 25.233 7.343l-217.274 217.271c-3.501-8.205-5.88-16.614-7.138-25.233-1.259-8.614-1.888-17.655-1.888-27.119 0-48.41 16.889-89.502 50.667-123.281 33.779-33.775 74.871-50.667 123.281-50.667zM816.653 281.6l-133.824 132.762c3.61 10.172 6.357 20.429 8.247 30.767 1.886 10.338 2.829 21.035 2.829 32.081 0 48.41-16.887 89.505-50.667 123.283s-74.871 50.667-123.281 50.667c-11.051 0-21.743-1.012-32.081-3.036s-20.459-5.333-30.357-9.929l-106.75 106.338c27.131 10.721 54.796 18.626 82.993 23.713s56.93 7.631 86.195 7.631c90.091 0 172.732-24 247.919-72 75.183-48 134.494-111.357 177.924-190.073 3.285-5.414 5.815-11.226 7.59-17.434 1.779-6.208 2.667-12.595 2.667-19.162 0-6.562-0.777-12.949-2.338-19.157-1.557-6.208-3.981-12.019-7.262-17.434-16.521-30.963-35.362-59.857-56.533-86.69-21.167-26.829-45.594-50.94-73.271-72.329zM634.5 462.276l-128.41 128.002c17.941 3.555 35.418 2.27 52.433-3.856 17.011-6.127 31.697-15.672 44.058-28.636 12.638-12.8 21.76-27.517 27.366-44.144 5.606-16.631 7.125-33.749 4.553-51.366z" />
<glyph unicode="&#xe916;" glyph-name="expand-more" d="M526.485 319.1c-5.141 0-9.929 0.819-14.357 2.462-4.433 1.638-8.644 4.459-12.638 8.452l-191.753 191.753c-5.908 5.905-8.93 13.332-9.067 22.275s2.885 16.506 9.067 22.687c6.181 6.181 13.675 9.271 22.481 9.271s16.3-3.090 22.481-9.271l173.786-173.786 173.786 173.786c5.909 5.907 13.333 8.929 22.276 9.067s16.503-2.886 22.686-9.067c6.182-6.181 9.271-13.675 9.271-22.482s-3.089-16.302-9.271-22.48l-191.753-191.753c-3.994-3.994-8.205-6.814-12.638-8.452-4.429-1.643-9.216-2.462-14.357-2.462z" />
<glyph unicode="&#xe917;" glyph-name="expand-less" d="M512.021 514.624l-173.786-173.786c-5.907-5.905-13.333-8.93-22.276-9.067s-16.505 2.889-22.686 9.067c-6.182 6.182-9.273 13.675-9.273 22.481 0 8.811 3.091 16.303 9.273 22.485l191.753 191.752c3.994 3.993 8.205 6.81 12.638 8.451 4.429 1.641 9.216 2.461 14.357 2.461s9.929-0.82 14.357-2.461c4.433-1.641 8.644-4.458 12.638-8.451l191.753-191.752c5.905-5.909 8.93-13.333 9.067-22.276 0.137-8.947-2.884-16.508-9.067-22.69-6.182-6.178-13.675-9.271-22.481-9.271s-16.303 3.093-22.481 9.271l-173.786 173.786z" />
<glyph unicode="&#xe918;" glyph-name="fastpay" d="M421.77 354.47h-129.806c-14.331 0-24.833 6.349-31.507 19.038s-5.852 24.917 2.462 36.676l279.546 403.279c5.743 8.041 13.073 13.538 21.99 16.492s18.189 2.708 27.814-0.739c9.626-3.446 16.67-9.34 21.129-17.681s6.11-17.327 4.962-26.954l-32.081-259.444h159.181c15.206 0 25.929-6.81 32.162-20.433 6.238-13.619 4.403-26.308-5.495-38.071l-309.086-370.21c-6.182-7.33-13.73-12.075-22.647-14.234-8.913-2.163-17.612-1.301-26.091 2.581-8.478 3.887-15.056 9.822-19.732 17.805-4.677 7.987-6.441 16.794-5.293 26.423l32.493 225.472z" />
<glyph unicode="&#xe919;" glyph-name="bank" d="M47.575 19.332c5.129-7.637 13.561-12.22 22.585-12.22h883.657c9.024 0 17.455 4.582 22.583 12.22 5.154 7.667 6.34 17.446 3.17 26.193-10.714 29.641-30.75 55.642-38.886 65.421-5.21 6.302-12.838 9.941-20.868 9.941h-815.657c-8.030 0-15.657-3.639-20.867-9.941-8.136-9.779-28.171-35.78-38.886-65.421-3.168-8.747-1.987-18.526 3.17-26.193zM152.656 519.113h166.833v-341.333h-166.833v341.333zM429.547 519.113h164.996v-341.333h-164.996v341.333zM704.546 519.113h166.831v-341.333h-166.831v341.333zM967.1 689.778l-442.722 224.581c-7.791 3.966-16.986 3.966-24.777 0l-442.723-224.581h910.221zM56.879 689.778h910.221l0.013-56.883c0-31.419-25.472-56.889-56.887-56.889h-796.446c-31.419 0-56.889 25.47-56.889 56.889l-0.011 56.883z" />
<glyph unicode="&#xe91a;" glyph-name="phone-card" d="M205.129 106.667c-21.552 0-39.795 7.467-54.729 22.4s-22.4 33.178-22.4 54.729v485.743c0 21.552 7.467 39.795 22.4 54.729s33.176 22.4 54.729 22.4h656.41c21.551 0 39.795-7.467 54.729-22.4s22.4-33.176 22.4-54.729v-485.743c0-21.551-7.467-39.795-22.4-54.729s-33.178-22.4-54.729-22.4h-656.41zM191.999 443.9h682.668v136.203h-682.668v-136.203z" />
<glyph unicode="&#xe91b;" glyph-name="wallet" d="M205.129 64c-21.552 0-39.795 7.467-54.729 22.4s-22.4 33.178-22.4 54.729v571.076c0 21.552 7.467 39.795 22.4 54.729s33.176 22.4 54.729 22.4h571.076c21.551 0 39.795-7.467 54.729-22.4s22.4-33.176 22.4-54.729v-29.54h-306.871c-42.283 0-76.373-12.95-102.276-38.85-25.9-25.901-38.85-59.993-38.85-102.276v-229.743c0-42.283 12.95-76.373 38.85-102.276 25.903-25.899 59.994-38.848 102.276-38.848h306.871v-29.542c0-21.551-7.467-39.795-22.4-54.729s-33.178-22.4-54.729-22.4h-571.076zM546.462 234.667c-21.551 0-39.795 7.467-54.729 22.4s-22.4 33.178-22.4 54.729v229.743c0 21.552 7.467 39.795 22.4 54.729s33.178 22.4 54.729 22.4h272.405c21.555 0 39.799-7.467 54.733-22.4s22.4-33.176 22.4-54.729v-229.743c0-21.551-7.467-39.795-22.4-54.729s-33.178-22.4-54.733-22.4h-272.405zM661.333 362.667c18.487 0 33.775 6.046 45.867 18.133 12.087 12.092 18.133 27.379 18.133 45.867 0 18.492-6.046 33.779-18.133 45.867-12.092 12.092-27.379 18.133-45.867 18.133-18.492 0-33.779-6.042-45.867-18.133-12.092-12.087-18.133-27.375-18.133-45.867 0-18.487 6.042-33.775 18.133-45.867 12.087-12.087 27.375-18.133 45.867-18.133z" />
<glyph unicode="&#xe91c;" glyph-name="btc" d="M542.135 428.971h-76.821v-114.129h76.821c15.509 0 29.892 6.293 39.987 16.849 10.556 10.116 16.845 24.478 16.845 40.448 0.026 31.232-25.6 56.832-56.832 56.832zM512 874.667c-235.276 0-426.667-191.39-426.667-426.667s191.39-426.667 426.667-426.667c235.277 0 426.667 191.415 426.667 426.667s-191.415 426.667-426.667 426.667zM598.822 250.415h-50.325v-79.091h-52.783v79.091h-28.988v-79.091h-53.030v79.091h-93.233v49.643h51.444v297.446h-51.444v49.64h93.233v77.507h53.030v-77.507h28.988v77.507h52.783v-77.507h45.837c25.6 0 49.203-10.557 66.048-27.404 16.849-16.847 27.405-40.448 27.405-66.048 0-50.101-39.548-90.988-88.964-93.233 57.95 0 104.691-47.177 104.691-105.131 0-57.732-46.716-104.913-104.691-104.913zM576.077 499.081c9.216 9.216 14.822 21.577 14.822 35.499 0 27.624-22.455 50.103-50.103 50.103h-75.482v-100.425h75.482c13.705 0 26.283 5.85 35.281 14.822z" />
<glyph unicode="&#xe91d;" glyph-name="arrow-circle-right" d="M533.402 21.333c-56.060 0-108.754 10.641-158.082 31.915-49.329 21.278-92.238 50.155-128.727 86.626s-65.378 79.364-86.663 128.67c-21.286 49.306-31.929 101.99-31.929 158.050 0 56.064 10.638 108.758 31.915 158.086s50.151 92.238 86.624 128.727c36.474 36.49 79.364 65.378 128.671 86.663s101.991 31.929 158.051 31.929 108.757-10.638 158.084-31.915c49.331-21.277 92.237-50.151 128.73-86.624 36.489-36.474 65.374-79.364 86.66-128.671s31.932-101.991 31.932-158.051-10.641-108.757-31.915-158.084c-21.278-49.331-50.155-92.237-86.626-128.73-36.471-36.489-79.364-65.374-128.67-86.66s-101.99-31.932-158.054-31.932zM567.714 394.667l-56.862-56.862c-5.909-5.905-8.794-13.265-8.657-22.071s3.157-16.162 9.067-22.071c5.905-5.905 13.355-8.862 22.345-8.862s16.393 2.957 22.208 8.862l106.010 106.010c7.714 7.714 11.571 16.713 11.571 26.995s-3.857 19.281-11.571 26.995l-106.419 106.42c-5.909 5.908-13.265 8.862-22.071 8.862s-16.166-2.954-22.071-8.862c-5.909-5.907-8.862-13.355-8.862-22.345s2.953-16.393 8.862-22.209l56.452-56.862h-162.382c-9.067 0-16.666-3.068-22.799-9.203s-9.2-13.739-9.2-22.81c0-9.071 3.067-16.67 9.2-22.797s13.732-9.19 22.799-9.19h162.382z" />
<glyph unicode="&#xe91e;" glyph-name="verified" d="M488.533 388.433l-67.94 67.938c-6.345 6.345-13.771 9.587-22.276 9.724s-16.068-3.106-22.687-9.724c-6.618-6.618-9.927-14.221-9.927-22.81s3.309-16.192 9.927-22.81l85.908-86.566c7.714-7.71 16.713-11.567 26.995-11.567s19.281 3.857 26.995 11.567l176.819 176.823c6.345 6.345 9.587 13.879 9.724 22.601 0.137 8.725-3.106 16.399-9.724 23.018s-14.221 9.927-22.81 9.927-16.192-3.309-22.81-9.927l-158.195-158.194zM533.333 34.057c-4.433 0-8.781 0.354-13.047 1.067-4.267 0.708-8.397 1.775-12.39 3.196-89.981 32-161.571 88.742-214.767 170.219s-79.795 169.391-79.795 263.753v192.162c0 16.137 4.677 30.7 14.031 43.692s21.388 22.414 36.102 28.267l242.871 90.667c9.135 3.281 18.133 4.922 26.995 4.922s17.86-1.641 26.995-4.922l242.871-90.667c14.711-5.853 26.748-15.275 36.1-28.267s14.033-27.555 14.033-43.692v-192.162c0-94.362-26.603-182.276-79.799-263.753-53.193-81.476-124.783-138.219-214.767-170.219-3.994-1.421-8.124-2.487-12.39-3.196-4.267-0.713-8.614-1.067-13.043-1.067z" />
<glyph unicode="&#xe91f;" glyph-name="task-alt" d="M533.402 21.333c-56.060 0-108.754 10.641-158.082 31.915-49.329 21.278-92.238 50.155-128.727 86.626s-65.378 79.364-86.663 128.67c-21.286 49.306-31.929 101.99-31.929 158.050 0 56.064 10.64 108.758 31.92 158.086s50.16 92.238 86.64 128.727c36.48 36.49 79.378 65.378 128.693 86.663s102.007 31.929 158.080 31.929c35.499 0 69.905-4.527 103.219-13.58s65.178-22.14 95.59-39.262c8.205-4.595 13.564-11.214 16.081-19.856s1.041-16.711-4.429-24.205c-5.47-7.494-12.706-12.184-21.705-14.071s-17.681-0.533-26.048 4.062c-24.943 13.949-51.187 24.588-78.729 31.918-27.546 7.33-55.539 10.995-83.981 10.995-94.579 0-175.112-33.244-241.601-99.733s-99.733-147.022-99.733-241.601c0-94.575 33.244-175.108 99.733-241.6 66.489-66.487 147.022-99.733 241.601-99.733 94.575 0 175.108 33.246 241.6 99.733 66.487 66.492 99.733 147.025 99.733 241.6 0 8.26-0.316 16.256-0.943 24-0.631 7.74-1.711 15.689-3.243 23.838-1.421 9.084 0.137 17.771 4.676 26.057 4.54 8.282 11.375 13.653 20.506 16.115 8.593 2.462 16.567 1.395 23.923-3.2 7.36-4.595 11.746-11.213 13.171-19.853 1.967-10.778 3.443-21.679 4.429-32.704 0.986-11.021 1.481-22.438 1.481-34.253 0-56.068-10.641-108.762-31.915-158.080-21.278-49.314-50.155-92.211-86.626-128.691s-79.364-65.361-128.67-86.639c-49.306-21.282-101.99-31.923-158.054-31.923zM472.781 335.095l398.438 399.1c5.909 5.907 13.222 9.039 21.948 9.394s16.427-2.805 23.104-9.484c6.123-6.121 9.182-13.585 9.182-22.393s-3.089-16.3-9.271-22.481l-416.41-417.065c-7.71-7.714-16.708-11.571-26.991-11.571-10.287 0-19.285 3.857-26.995 11.571l-117.089 117.086c-5.907 5.909-8.929 13.333-9.067 22.276s2.886 16.508 9.067 22.686c6.181 6.182 13.675 9.271 22.482 9.271s16.3-3.089 22.481-9.271l99.121-99.119z" />
<glyph unicode="&#xe920;" glyph-name="circle-plus" d="M501.333 394.667v-138.667c0-9.067 3.068-16.666 9.203-22.797 6.135-6.135 13.739-9.203 22.81-9.203s16.67 3.068 22.797 9.203c6.127 6.131 9.19 13.73 9.19 22.797v138.667h138.667c9.067 0 16.666 3.068 22.801 9.203 6.131 6.14 9.199 13.743 9.199 22.81 0 9.071-3.068 16.67-9.199 22.797-6.135 6.127-13.734 9.19-22.801 9.19h-138.667v138.668c0 9.067-3.068 16.667-9.203 22.8-6.14 6.132-13.743 9.199-22.81 9.199-9.071 0-16.67-3.066-22.797-9.199s-9.19-13.734-9.19-22.8v-138.668h-138.668c-9.067 0-16.666-3.068-22.799-9.203s-9.2-13.739-9.2-22.81c0-9.071 3.067-16.67 9.2-22.797s13.732-9.19 22.799-9.19h138.668zM533.402 21.333c-56.060 0-108.754 10.641-158.082 31.915-49.329 21.278-92.238 50.155-128.727 86.626s-65.378 79.364-86.663 128.67c-21.286 49.306-31.929 101.99-31.929 158.050 0 56.064 10.638 108.758 31.915 158.086s50.151 92.238 86.624 128.727c36.474 36.49 79.364 65.378 128.671 86.663s101.991 31.929 158.051 31.929 108.757-10.638 158.084-31.915c49.331-21.277 92.237-50.151 128.73-86.624 36.489-36.474 65.374-79.364 86.66-128.671s31.932-101.991 31.932-158.051-10.641-108.757-31.915-158.084c-21.278-49.331-50.155-92.237-86.626-128.73-36.471-36.489-79.364-65.374-128.67-86.66s-101.99-31.932-158.054-31.932z" />
<glyph unicode="&#xe921;" glyph-name="sms" d="M362.666 474.257c10.447 0 19.35 3.678 26.707 11.038 7.357 7.356 11.036 16.26 11.036 26.705 0 10.449-3.679 19.349-11.036 26.708-7.357 7.357-16.26 11.035-26.707 11.035s-19.35-3.678-26.707-11.035c-7.357-7.359-11.036-16.259-11.036-26.708 0-10.445 3.678-19.349 11.036-26.705 7.357-7.36 16.259-11.038 26.707-11.038zM533.333 474.257c10.445 0 19.349 3.678 26.705 11.038 7.36 7.356 11.038 16.26 11.038 26.705 0 10.449-3.678 19.349-11.038 26.708-7.356 7.357-16.26 11.035-26.705 11.035-10.449 0-19.349-3.678-26.709-11.035-7.356-7.359-11.034-16.259-11.034-26.708 0-10.445 3.678-19.349 11.034-26.705 7.36-7.36 16.26-11.038 26.709-11.038zM704 474.257c10.445 0 19.349 3.678 26.705 11.038 7.36 7.356 11.038 16.26 11.038 26.705 0 10.449-3.678 19.349-11.038 26.708-7.356 7.357-16.26 11.035-26.705 11.035-10.449 0-19.349-3.678-26.709-11.035-7.356-7.359-11.034-16.259-11.034-26.708 0-10.445 3.678-19.349 11.034-26.705 7.36-7.36 16.26-11.038 26.709-11.038zM278.974 192l-85.414-85.414c-12.144-12.143-26.106-14.891-41.887-8.243-15.782 6.647-23.673 18.611-23.673 35.895v620.634c0 21.552 7.467 39.795 22.4 54.729s33.176 22.4 54.729 22.4h656.41c21.551 0 39.795-7.467 54.729-22.4s22.4-33.176 22.4-54.729v-485.743c0-21.551-7.467-39.795-22.4-54.729s-33.178-22.4-54.729-22.4h-582.564z" />
<glyph unicode="&#xe922;" glyph-name="circle-check" d="M448.26 351.612l-104.337 104.333c-6.218 6.221-14.034 9.399-23.449 9.545s-17.375-3.038-23.881-9.545c-6.506-6.507-9.76-14.396-9.76-23.663 0-9.271 3.253-17.161 9.76-23.667l123.249-123.247c8.121-8.119 17.593-12.177 28.417-12.177s20.297 4.058 28.412 12.177l249.869 249.867c6.221 6.218 9.399 14.034 9.545 23.449s-3.038 17.375-9.545 23.881c-6.507 6.506-14.391 9.76-23.663 9.76s-17.156-3.253-23.663-9.76l-230.955-230.953zM512.077 21.333c-59.012 0-114.482 11.2-166.406 33.596-51.926 22.396-97.093 52.791-135.503 91.183s-68.819 83.541-91.225 135.441c-22.406 51.904-33.609 107.358-33.609 166.37s11.198 114.482 33.594 166.406c22.396 51.926 52.791 97.093 91.183 135.503s83.541 68.819 135.444 91.225c51.901 22.406 107.356 33.609 166.368 33.609s114.483-11.198 166.409-33.594c51.925-22.397 97.092-52.791 135.501-91.183s68.817-83.541 91.226-135.444c22.404-51.901 33.609-107.356 33.609-166.368s-11.2-114.483-33.596-166.409c-22.396-51.925-52.791-97.092-91.183-135.501s-83.541-68.817-135.441-91.226c-51.904-22.404-107.358-33.609-166.37-33.609z" />
<glyph unicode="&#xe923;" glyph-name="close" d="M531.584 368.465l-288.605-288.602c-7.876-7.876-17.777-11.904-29.702-12.087s-22.007 3.849-30.248 12.087c-8.242 8.243-12.364 18.236-12.364 29.978s4.121 21.73 12.364 29.973l288.603 288.602-288.603 288.605c-7.878 7.876-11.907 17.777-12.089 29.702s3.847 22.007 12.089 30.248c8.241 8.242 18.233 12.364 29.975 12.364s21.734-4.121 29.975-12.364l288.605-288.603 288.602 288.603c7.876 7.878 17.775 11.907 29.7 12.089s22.007-3.847 30.251-12.089c8.239-8.241 12.361-18.233 12.361-29.975s-4.122-21.734-12.361-29.975l-288.602-288.605 288.602-288.602c7.876-7.876 11.904-17.775 12.087-29.7s-3.849-22.007-12.087-30.251c-8.243-8.239-18.236-12.361-29.978-12.361s-21.73 4.122-29.973 12.361l-288.602 288.602z" />
<glyph unicode="&#xe924;" glyph-name="medal" d="M512 456.533l-69.662-53.824c-3.994-3.008-7.919-3.119-11.776-0.329s-5.072 6.4-3.652 10.829l26.505 87.138-70.563 53.991c-3.556 3.009-4.554 6.688-2.996 11.036s4.554 6.523 8.985 6.523h87.221l26.5 85.825c1.425 4.431 4.57 6.646 9.438 6.646s8.013-2.215 9.434-6.646l26.505-85.825h86.562c4.433 0 7.535-2.174 9.314-6.523 1.775-4.349 0.887-8.027-2.667-11.036l-71.223-53.991 26.505-87.138c1.425-4.429 0.205-8.038-3.648-10.829-3.857-2.79-7.782-2.679-11.776 0.329l-69.005 53.824zM512 86.157l-184.287-58.338c-12.581-4.429-24.122-2.722-34.625 5.129s-15.755 18.202-15.755 31.057v252.881c-27.022 28.224-48 60.851-62.933 97.886-14.933 37.030-22.4 76.553-22.4 118.563 0 89.271 31.015 164.922 93.046 226.953s137.681 93.047 226.954 93.047c89.271 0 164.919-31.016 226.953-93.047 62.029-62.030 93.047-137.681 93.047-226.953 0-42.010-7.467-81.533-22.4-118.563-14.933-37.035-35.913-69.662-62.933-97.886v-252.881c0-12.855-5.252-23.206-15.757-31.057-10.5-7.851-22.046-9.562-34.624-5.129l-184.286 58.338zM512 277.333c71.108 0 131.554 24.892 181.333 74.667 49.775 49.779 74.667 110.225 74.667 181.334 0 71.111-24.892 131.556-74.667 181.333-49.779 49.778-110.225 74.667-181.333 74.667-71.113 0-131.557-24.889-181.335-74.667s-74.667-110.222-74.667-181.333c0-71.109 24.889-131.555 74.667-181.334 49.778-49.775 110.222-74.667 181.335-74.667z" />
<glyph unicode="&#xe925;" glyph-name="arrow-back" d="M319.834 408.081l220.553-220.557c6.349-6.345 9.481-13.769 9.395-22.276-0.081-8.503-3.43-16.068-10.052-22.686-6.618-6.182-14.11-9.382-22.477-9.6-8.371-0.218-15.863 2.982-22.481 9.6l-270.525 270.524c-3.993 3.994-6.81 8.205-8.451 12.634-1.641 4.433-2.462 9.216-2.462 14.357 0 5.146 0.82 9.929 2.462 14.362 1.641 4.429 4.458 8.64 8.451 12.634l270.525 270.524c5.905 5.908 13.222 8.93 21.943 9.067 8.725 0.137 16.397-2.886 23.014-9.067 6.622-6.618 9.929-14.222 9.929-22.81s-3.307-16.192-9.929-22.81l-219.895-219.9h485.414c9.079 0 16.683-3.063 22.81-9.19 6.127-6.123 9.19-13.726 9.19-22.81 0-9.079-3.063-16.683-9.19-22.81-6.127-6.123-13.73-9.186-22.81-9.186h-485.414z" />
<glyph unicode="&#xe926;" glyph-name="arrow-forward" d="M730.748 407.539h-485.414c-9.080 0-16.684 3.063-22.81 9.19s-9.19 13.73-9.19 22.81c0 9.079 3.063 16.683 9.19 22.81s13.729 9.19 22.81 9.19h485.414l-220.553 220.554c-6.345 6.345-9.476 13.771-9.395 22.276s3.43 16.069 10.052 22.687c6.618 6.181 14.11 9.381 22.481 9.6 8.367 0.219 15.863-2.981 22.481-9.6l270.519-270.522c3.994-3.994 6.814-8.205 8.452-12.638 1.643-4.429 2.462-9.216 2.462-14.357s-0.819-9.929-2.462-14.357c-1.638-4.433-4.459-8.644-8.452-12.638l-270.519-270.519c-5.909-5.909-13.222-8.93-21.948-9.067s-16.397 2.884-23.014 9.067c-6.622 6.618-9.929 14.221-9.929 22.81 0 8.585 3.307 16.188 9.929 22.81l219.895 219.895z" />
<glyph unicode="&#xe927;" glyph-name="calendar" d="M247.795 59.081c-21.552 0-39.795 7.467-54.729 22.4s-22.4 33.173-22.4 54.729v571.073c0 21.553 7.467 39.796 22.4 54.729s33.176 22.4 54.729 22.4h59.078v57.437c0 9.353 3.132 17.161 9.395 23.425s14.071 9.394 23.425 9.394c9.353 0 17.162-3.131 23.425-9.394s9.394-14.071 9.394-23.425v-57.437h323.283v58.257c0 9.080 3.059 16.684 9.186 22.81s13.73 9.189 22.81 9.189c9.079 0 16.683-3.063 22.81-9.189s9.19-13.73 9.19-22.81v-58.257h59.081c21.551 0 39.795-7.467 54.729-22.4s22.4-33.176 22.4-54.729v-571.073c0-21.555-7.467-39.795-22.4-54.729s-33.178-22.4-54.729-22.4h-571.076zM247.795 123.076h571.076c3.281 0 6.289 1.37 9.024 4.105s4.105 5.743 4.105 9.028v400.406h-597.335v-400.406c0-3.285 1.367-6.293 4.102-9.028s5.745-4.105 9.027-4.105z" />
<glyph unicode="&#xe928;" glyph-name="mountain-flag" d="M317.553 412.8l37.661 77.457c6.564 13.291 16.096 23.795 28.595 31.505 12.499 7.714 26.106 11.571 40.82 11.571h60.060v260.102c0 10.994 3.682 20.17 11.038 27.527s16.533 11.037 27.529 11.037h201.353c7.002 0 12.429-3.036 16.286-9.108s4.143-12.389 0.862-18.953l-19.776-37.825c-1.421-3.008-2.133-5.935-2.133-8.78s0.713-5.771 2.133-8.779l19.776-37.826c3.281-6.563 2.995-12.881-0.862-18.954s-9.284-9.107-16.286-9.107h-175.919v-149.334h56.862c14.716 0 28.1-3.857 40.162-11.571 12.062-7.71 21.594-17.997 28.595-30.848l39.386-79.59-114.052-75.9-82.953 42.010-82.953-42.010-116.184 77.376zM248.548 21.333c-28.718 0-50.612 12.105-65.682 36.309s-16.177 49.161-3.322 74.871l109.456 222.767 139.976-93.372 87.714 43.324 87.714-43.324 138.253 91.238 110.524-219.977c12.855-25.711 11.746-50.778-3.324-75.2s-37.099-36.638-66.091-36.638h-535.217z" />
<glyph unicode="&#xe929;" glyph-name="history" d="M512 64c-89.6 0-168.889 27.2-237.867 81.6s-113.778 123.913-134.4 208.533c-2.845 10.667-0.711 20.446 6.4 29.333s16.711 14.046 28.8 15.467c11.378 1.421 21.689-0.713 30.933-6.4s15.645-14.221 19.2-25.6c17.067-64 52.267-116.267 105.6-156.8s113.779-60.8 181.333-60.8c83.2 0 153.779 28.979 211.733 86.933s86.933 128.533 86.933 211.733c0 83.2-28.979 153.778-86.933 211.733s-128.533 86.933-211.733 86.933c-49.067 0-94.933-11.378-137.6-34.133s-78.578-54.045-107.733-93.867h74.667c12.089 0 22.222-4.089 30.4-12.267s12.267-18.311 12.267-30.4c0-12.089-4.089-22.222-12.267-30.4s-18.311-12.267-30.4-12.267h-170.667c-12.089 0-22.222 4.089-30.4 12.267s-12.267 18.311-12.267 30.4v170.667c0 12.089 4.089 22.222 12.267 30.4s18.311 12.267 30.4 12.267c12.089 0 22.222-4.089 30.4-12.267s12.267-18.311 12.267-30.4v-57.6c36.267 45.511 80.533 80.711 132.8 105.6s107.554 37.333 165.867 37.333c53.333 0 103.287-10.133 149.867-30.4s87.113-47.645 121.6-82.133c34.487-34.489 61.867-75.022 82.133-121.6s30.4-96.533 30.4-149.867c0-53.333-10.133-103.287-30.4-149.867s-47.646-87.113-82.133-121.6c-34.487-34.487-75.021-61.867-121.6-82.133s-96.533-30.4-149.867-30.4zM554.667 465.067l106.667-106.667c7.821-7.821 11.733-17.779 11.733-29.867s-3.913-22.046-11.733-29.867c-7.821-7.821-17.779-11.733-29.867-11.733s-22.046 3.913-29.867 11.733l-119.467 119.467c-4.267 4.267-7.467 9.067-9.6 14.4s-3.2 10.846-3.2 16.533v169.6c0 12.089 4.087 22.222 12.267 30.4s18.313 12.267 30.4 12.267c12.087 0 22.221-4.089 30.4-12.267s12.267-18.311 12.267-30.4v-153.6z" />
<glyph unicode="&#xe92a;" glyph-name="repeat-one" d="M472.533 530.645h-32c-9.246 0-16.889 3.022-22.933 9.067s-9.067 13.689-9.067 22.933c0 9.245 3.022 16.889 9.067 22.933s13.687 9.067 22.933 9.067h53.333c12.087 0 22.221-4.089 30.4-12.267s12.267-18.311 12.267-30.4v-181.333c0-9.246-3.021-16.887-9.067-22.933s-13.687-9.067-22.933-9.067c-9.246 0-16.887 3.021-22.933 9.067s-9.067 13.687-9.067 22.933v160zM274.133 167.979l36.267-36.267c8.533-8.533 12.622-18.487 12.267-29.867s-4.445-21.333-12.267-29.867c-8.533-8.533-18.667-12.979-30.4-13.333s-21.867 3.733-30.4 12.267l-109.867 109.867c-4.267 4.267-7.289 8.887-9.067 13.867s-2.667 10.313-2.667 16c0 5.687 0.889 11.021 2.667 16s4.8 9.6 9.067 13.867l109.867 109.867c8.533 8.533 18.667 12.621 30.4 12.267s21.867-4.8 30.4-13.333c7.822-8.533 11.911-18.487 12.267-29.867s-3.733-21.333-12.267-29.867l-36.267-36.267h433.067v128c0 12.087 4.087 22.221 12.267 30.4s18.313 12.267 30.4 12.267c12.087 0 22.221-4.087 30.4-12.267s12.267-18.313 12.267-30.4v-128c0-23.467-8.354-43.554-25.067-60.267s-36.8-25.067-60.267-25.067h-433.067zM713.6 679.979h-433.067v-128c0-12.089-4.089-22.221-12.267-30.4s-18.311-12.267-30.4-12.267c-12.089 0-22.222 4.087-30.4 12.267s-12.267 18.311-12.267 30.4v128c0 23.467 8.355 43.555 25.067 60.267s36.8 25.067 60.267 25.067h433.067l-36.267 36.267c-8.533 8.533-12.621 18.489-12.267 29.867s4.446 21.333 12.267 29.867c8.533 8.533 18.667 12.978 30.4 13.333s21.867-3.733 30.4-12.267l109.867-109.867c4.267-4.267 7.287-8.889 9.067-13.867s2.667-10.311 2.667-16c0-5.689-0.887-11.022-2.667-16s-4.8-9.6-9.067-13.867l-109.867-109.867c-8.533-8.533-18.667-12.622-30.4-12.267s-21.867 4.8-30.4 13.333c-7.821 8.533-11.913 18.489-12.267 29.867s3.733 21.333 12.267 29.867l36.267 36.267z" />
<glyph unicode="&#xe92b;" glyph-name="star" d="M511.983 247.962l-165.989-100.1c-6.181-3.61-12.375-5.129-18.583-4.553-6.209 0.572-11.829 2.667-16.862 6.276s-8.915 8.329-11.65 14.153c-2.736 5.824-3.174 12.267-1.313 19.324l44.061 188.471-146.543 126.848c-5.47 4.762-8.957 10.27-10.461 16.533s-1.108 12.348 1.19 18.257c2.298 5.907 5.607 10.735 9.929 14.481s10.229 6.194 17.722 7.343l193.394 16.902 75.077 177.969c2.735 6.618 6.878 11.514 12.429 14.687s11.418 4.758 17.6 4.758c6.182 0 12.049-1.586 17.6-4.758s9.694-8.069 12.429-14.687l75.076-177.969 193.395-16.902c7.492-1.149 13.402-3.596 17.724-7.343s7.629-8.574 9.929-14.481c2.295-5.909 2.692-11.994 1.19-18.257-1.506-6.263-4.992-11.772-10.462-16.533l-146.543-126.848 44.062-188.471c1.86-7.057 1.421-13.5-1.314-19.324s-6.618-10.543-11.652-14.153c-5.030-3.61-10.65-5.705-16.862-6.276-6.208-0.576-12.399 0.943-18.581 4.553l-165.99 100.1z" />
<glyph unicode="&#xe92c;" glyph-name="search" d="M734.076 279.381l161.924-161.886-53.495-53.495-161.886 161.924c-60.237-48.286-135.159-74.551-212.361-74.441-187.823 0-340.258 152.435-340.258 340.258s152.436 340.258 340.258 340.258c187.823 0 340.258-152.436 340.258-340.258 0.111-77.201-26.155-152.124-74.441-212.361zM658.236 307.435c47.979 49.344 74.778 115.482 74.667 184.307 0 146.235-118.447 264.645-264.644 264.645-146.235 0-264.645-118.41-264.645-264.645 0-146.197 118.41-264.644 264.645-264.644 68.826-0.111 134.963 26.688 184.307 74.667l5.67 5.67z" />
<glyph unicode="&#xe92d;" glyph-name="phone" d="M333.129-21.329c-21.552 0-39.795 7.467-54.729 22.4s-22.4 33.173-22.4 54.724v741.743c0 21.552 7.467 39.795 22.4 54.729s33.176 22.4 54.729 22.4h400.405c21.555 0 39.799-7.467 54.733-22.4s22.4-33.176 22.4-54.729v-741.743c0-21.551-7.467-39.795-22.4-54.729s-33.178-22.4-54.733-22.4l-400.405 0.004zM533.333 73.847c10.445 0 19.349 3.678 26.705 11.034 7.36 7.36 11.038 16.26 11.038 26.709s-3.678 19.349-11.038 26.705c-7.356 7.36-16.26 11.038-26.705 11.038-10.449 0-19.349-3.678-26.709-11.034-7.356-7.36-11.034-16.26-11.034-26.709 0-10.445 3.678-19.349 11.034-26.705 7.36-7.36 16.26-11.038 26.709-11.038v0zM319.999 244.514h426.668v448.821h-426.668v-448.821z" />
<glyph unicode="&#xe92e;" glyph-name="mail" d="M205.129 106.667c-21.552 0-39.795 7.467-54.729 22.4s-22.4 33.178-22.4 54.729v485.743c0 21.552 7.467 39.795 22.4 54.729s33.176 22.4 54.729 22.4h656.41c21.551 0 39.795-7.467 54.729-22.4s22.4-33.176 22.4-54.729v-485.743c0-21.551-7.467-39.795-22.4-54.729s-33.178-22.4-54.729-22.4h-656.41zM533.333 409.929c3.554 0 7.083 0.533 10.586 1.6 3.499 1.067 6.891 2.53 10.172 4.39l305.152 195.366c4.868 3.008 8.311 6.905 10.338 11.692 2.022 4.787 2.624 9.833 1.805 15.138-0.55 9.846-5.363 17.162-14.443 21.948-9.079 4.787-18.244 4.363-27.486-1.271l-296.124-189.458-296.125 189.458c-9.245 5.634-18.338 6.085-27.281 1.353s-13.826-11.937-14.647-21.619c-0.82-5.744-0.219-11.077 1.805-16s5.47-8.67 10.338-11.241l305.152-195.366c3.281-1.86 6.673-3.324 10.172-4.39 3.503-1.067 7.027-1.6 10.586-1.6z" />
<glyph unicode="&#xe92f;" glyph-name="chevron-right" d="M567.057 433.314l-173.784 173.785c-5.908 5.907-8.93 13.332-9.067 22.276-0.137 8.943 2.885 16.505 9.067 22.686 6.181 6.182 13.675 9.272 22.481 9.272s16.302-3.091 22.48-9.272l191.753-191.752c3.994-3.994 6.814-8.205 8.452-12.638 1.643-4.429 2.462-9.216 2.462-14.357s-0.819-9.929-2.462-14.357c-1.638-4.433-4.459-8.644-8.452-12.638l-191.753-191.753c-5.905-5.909-13.332-8.93-22.275-9.067s-16.505 2.884-22.685 9.067c-6.182 6.178-9.273 13.675-9.273 22.481s3.091 16.299 9.273 22.481l173.784 173.786z" />
<glyph unicode="&#xe930;" glyph-name="QR-code" d="M128 533.333v256c0 12.089 4.089 22.222 12.267 30.4s18.311 12.267 30.4 12.267h256c12.087 0 22.221-4.089 30.4-12.267s12.267-18.311 12.267-30.4v-256c0-12.087-4.087-22.221-12.267-30.4s-18.313-12.267-30.4-12.267h-256c-12.089 0-22.222 4.087-30.4 12.267s-12.267 18.313-12.267 30.4zM213.333 576h170.667v170.667h-170.667v-170.667zM128 106.667v256c0 12.087 4.089 22.221 12.267 30.4s18.311 12.267 30.4 12.267h256c12.087 0 22.221-4.087 30.4-12.267s12.267-18.313 12.267-30.4v-256c0-12.087-4.087-22.221-12.267-30.4s-18.313-12.267-30.4-12.267h-256c-12.089 0-22.222 4.087-30.4 12.267s-12.267 18.313-12.267 30.4zM213.333 149.333h170.667v170.667h-170.667v-170.667zM554.667 533.333v256c0 12.089 4.087 22.222 12.267 30.4s18.313 12.267 30.4 12.267h256c12.087 0 22.221-4.089 30.4-12.267s12.267-18.311 12.267-30.4v-256c0-12.087-4.087-22.221-12.267-30.4s-18.313-12.267-30.4-12.267h-256c-12.087 0-22.221 4.087-30.4 12.267s-12.267 18.313-12.267 30.4zM640 576h170.667v170.667h-170.667v-170.667zM810.667 64v85.333h85.333v-85.333h-85.333zM554.667 320v85.333h85.333v-85.333h-85.333zM640 234.667v85.333h85.333v-85.333h-85.333zM554.667 149.333v85.333h85.333v-85.333h-85.333zM640 64v85.333h85.333v-85.333h-85.333zM725.333 149.333v85.333h85.333v-85.333h-85.333zM725.333 320v85.333h85.333v-85.333h-85.333zM810.667 234.667v85.333h85.333v-85.333h-85.333z" />
<glyph unicode="&#xe931;" glyph-name="support-agent" d="M512 64c-12.087 0-22.221 4.087-30.4 12.267s-12.267 18.313-12.267 30.4c0 12.087 4.087 22.221 12.267 30.4s18.313 12.267 30.4 12.267h298.667v302.933c0 83.2-28.979 153.778-86.933 211.733s-128.533 86.933-211.733 86.933c-83.2 0-153.778-28.978-211.733-86.933s-86.933-128.533-86.933-211.733v-217.6c0-12.087-4.089-22.221-12.267-30.4s-18.311-12.267-30.4-12.267c-23.467 0-43.555 8.354-60.267 25.067s-25.067 36.8-25.067 60.267v85.333c0 14.933 3.733 28.979 11.2 42.133s17.955 23.646 31.467 31.467l3.2 56.533c5.689 48.355 19.733 93.155 42.133 134.4s50.489 77.155 84.267 107.733c33.778 30.578 72.533 54.4 116.267 71.467s89.779 25.6 138.133 25.6c48.354 0 94.221-8.533 137.6-25.6s82.133-40.711 116.267-70.933c34.133-30.222 62.221-65.955 84.267-107.2s36.267-86.045 42.667-134.4l3.2-55.467c13.513-6.4 24-16 31.467-28.8s11.2-26.313 11.2-40.533v-98.133c0-14.221-3.733-27.733-11.2-40.533s-17.954-22.4-31.467-28.8v-52.267c0-23.467-8.354-43.554-25.067-60.267s-36.8-25.067-60.267-25.067h-298.667zM384 362.667c-12.089 0-22.222 4.087-30.4 12.267s-12.267 18.313-12.267 30.4c0 12.087 4.089 22.221 12.267 30.4s18.311 12.267 30.4 12.267c12.089 0 22.222-4.087 30.4-12.267s12.267-18.313 12.267-30.4c0-12.087-4.089-22.221-12.267-30.4s-18.311-12.267-30.4-12.267zM640 362.667c-12.087 0-22.221 4.087-30.4 12.267s-12.267 18.313-12.267 30.4c0 12.087 4.087 22.221 12.267 30.4s18.313 12.267 30.4 12.267c12.087 0 22.221-4.087 30.4-12.267s12.267-18.313 12.267-30.4c0-12.087-4.087-22.221-12.267-30.4s-18.313-12.267-30.4-12.267zM257.067 428.8c-4.978 75.379 17.778 140.089 68.267 194.133s113.421 81.067 188.8 81.067c63.287 0 118.933-20.089 166.933-60.267s76.979-91.555 86.933-154.133c-64.713 0.713-124.267 18.133-178.667 52.267s-96.179 80.355-125.333 138.667c-11.379-56.889-35.379-107.555-72-152-36.622-44.446-81.6-77.687-134.933-99.733z" />
<glyph unicode="&#xe932;" glyph-name="apartment" d="M213.333 64c-23.467 0-43.555 8.354-60.267 25.067s-25.067 36.8-25.067 60.267v426.667c0 23.467 8.355 43.555 25.067 60.267s36.8 25.067 60.267 25.067h85.333v85.333c0 23.467 8.355 43.555 25.067 60.267s36.8 25.067 60.267 25.067h256c23.467 0 43.554-8.355 60.267-25.067s25.067-36.8 25.067-60.267v-256h85.333c23.467 0 43.554-8.354 60.267-25.067s25.067-36.8 25.067-60.267v-256c0-23.467-8.354-43.554-25.067-60.267s-36.8-25.067-60.267-25.067h-256v170.667h-85.333v-170.667h-256zM213.333 149.333h85.333v85.333h-85.333v-85.333zM213.333 320h85.333v85.333h-85.333v-85.333zM213.333 490.667h85.333v85.333h-85.333v-85.333zM384 320h85.333v85.333h-85.333v-85.333zM384 490.667h85.333v85.333h-85.333v-85.333zM384 661.333h85.333v85.333h-85.333v-85.333zM554.667 320h85.333v85.333h-85.333v-85.333zM554.667 490.667h85.333v85.333h-85.333v-85.333zM554.667 661.333h85.333v85.333h-85.333v-85.333zM725.333 149.333h85.333v85.333h-85.333v-85.333zM725.333 320h85.333v85.333h-85.333v-85.333z" />
<glyph unicode="&#xe933;" glyph-name="withdraw" d="M537.165 378.667c4.284-3.221 6.865-3.465 11.187-3.874 0.422-0.038 0.858-0.081 1.314-0.128h89.003c34.496 0 64.998-16.998 82.496-43.998 124.002 26.5 217.502 136.998 217.502 269 0 151.5-123.499 275-274.999 275s-275-123.5-275-275c0-66 23.5-126.502 62.499-173.999 31.501-9.003 61.001-25.003 85.999-47.002zM663.667 574.667c-41.502 0-74.999 33.5-74.999 75 0 30 18.001 57.5 45.999 69 0.542 0.271 1.229 0.395 1.984 0.531 0.64 0.115 1.327 0.239 2.018 0.469v30c0 14 10.999 25 24.998 25s24.998-11 24.998-25v-30c13.001-4.5 25.502-11 37.001-22 10.001-9.5 10.001-25.5 0.499-35.5-9.498-10-25.498-10-35.499-0.5-12.002 11.5-25.502 16-36.501 11-9.498-4-15.497-13-15.497-23 0-14 10.999-25 24.998-25 41.498 0 74.999-33.5 74.999-75 0-31.501-19.998-59.499-49.502-70.499h-0.499v-29.5c0-14.003-10.999-25.003-24.998-25.003s-24.998 10.999-24.998 25.003v29.5c-16.503 5.5-32 16-45.504 32.499-8.998 10.5-7.497 25.999 3.004 34.999 10.496 9 26.496 7.5 34.999-3 13.5-16 28.497-21.999 40.998-17.501 10.001 3.503 16.499 13.001 16.499 23.501 0 14-10.999 25-24.998 25zM162 371.332h-51.667c-13.817 0-25-11.183-25-24.998v-300.002c0-13.815 11.183-24.998 25-24.998h51.667c41.35 0 75 33.651 75 74.999v200c0 41.353-33.65 74.999-75 74.999zM852.169 330.334c18.082 19.584 49.097 21.099 67.499 5.001 4.501-3.503 8.499-7.501 11.499-12.501 11.332-16.998 10.018-48.516-7.501-71.501l-120-160c-32.998-43.998-84.996-69.999-139.998-69.999h-224.666c-51.502 0-102.502 7.002-152.002 20.501v307.499c65.5 45.5 154.502 42.001 215.498-11.499 12.937-10.999 29.001-16.499 44.002-16.499h92.169c27.499 0 49.498-22.003 49.997-49.502v-0.499c0-27.503-22.498-50.001-49.997-50.001h-154.167c-14.003 0-25.003-10.999-25.003-24.998 0-14.003 10.999-25.003 25.003-25.003h195.665c21.001 0 40.998 8.499 55.002 24l3.499 4.002 113.502 130.999z" />
<glyph unicode="&#xe934;" glyph-name="deposit" d="M517.35 874.667h-341.634c-49.833 0-90.383-40.55-90.383-90.383v-615.417h522.402v615.417c0 49.833-40.55 90.383-90.385 90.383zM311.467 774.284h76.4c13.716 0 25-11.284 25-25s-11.283-25-25-25h-76.4c-13.817 0-25 11.183-25 25s11.183 25 25 25zM431.334 392.649c-4.968-29.534-26.918-59.465-61.234-69.615v-11.533c0-13.316-10.417-24.218-23.567-24.951-0.2-0.017-0.45-0.034-0.717-0.034-0.233-0.017-0.465-0.017-0.715-0.017-13.8 0-25.002 11.2-25.002 25.003v9.015c-16.267 1.967-29.9 7.036-48.216 18.999-11.567 7.552-14.8 23.053-7.25 34.603 7.55 11.567 23.050 14.797 34.6 7.249 1.411-0.926 2.614-1.771 3.729-2.551 4.175-2.931 7.121-5.001 15.238-7.134 6.267-1.647 13.117-2.014 16.6-2.197 4.8-0.252 8.817-0.166 11.734-0.017 20.883 0.9 33.016 16.764 35.483 31.484 1.233 7.33 1.7 25.25-20.5 33.114-5.45 1.937-10.417 3.733-14.983 5.47-3.884 1.481-7.5 2.88-10.867 4.267-19.834 8.047-34.167 15.817-45.117 24.397-18.417 14.451-26.867 39.42-22.017 65.152 5.25 27.9 24.717 50.117 50.783 57.967l0.349 0.103c0.147 0.042 0.295 0.084 0.434 0.131v9.617c0 13.8 11.2 25 25 25 0.483 0 0.967-0.017 1.434-0.050 13.15-0.733 23.567-11.633 23.567-24.95v-7.933c22.533-5.3 36.267-17.367 38.2-19.15 8.117-10.050 7.433-24.617-1.367-33.667-8.467-8.7-22.3-10.083-32.533-3.083 0.183-0.134 0.283-0.233 0.317-0.283-0.6 0.5-11.233 9.35-28.183 8.6h-0.233c-4.117-0.183-8.317-0.933-12.567-2.217-12.216-3.667-15.4-15.732-16.067-19.333-1.333-7.1 0.167-13.751 3.75-16.55 5.767-4.531 14.033-9.165 25.117-14.067 2.516-1.101 5.183-2.231 7.983-3.383 6.617-2.701 14.35-5.598 23.667-8.9 38.4-13.581 59.769-49.165 53.151-88.55zM85.333 111.718c0-49.835 40.55-90.385 90.383-90.385h341.634c49.835 0 90.385 40.55 90.385 90.385v7.147h-522.402v-7.147zM811.635 287.040l-146.667 148.066c-9.651 9.749-9.651 25.451 0 35.2l146.667 148.067c7.13 7.2 17.916 9.367 27.281 5.516s15.484-12.983 15.484-23.116v-64.733h84.267v-166.666h-84.267v-64.734c0-10.116-6.131-19.268-15.484-23.117-9.348-3.849-20.164-1.668-27.281 5.517z" />
<glyph unicode="&#xe935;" glyph-name="admin-panel" d="M725.333 21.333c-59.021 0-109.333 20.8-150.933 62.4s-62.4 91.908-62.4 150.933c0 59.021 20.8 109.333 62.4 150.933s91.913 62.4 150.933 62.4c59.021 0 109.333-20.8 150.933-62.4s62.4-91.913 62.4-150.933c0-59.025-20.8-109.333-62.4-150.933s-91.913-62.4-150.933-62.4zM170.667 486.4v201.599c0 17.777 5.155 33.777 15.467 48s23.645 24.533 40 30.933l256 96c9.954 3.555 19.913 5.333 29.867 5.333s19.913-1.778 29.867-5.333l256-96c16.354-6.4 29.687-16.711 40-30.933s15.467-30.223 15.467-48v-130.133c0-12.089-5.333-21.867-16-29.332s-22.046-9.425-34.133-5.867c-12.8 3.554-25.6 6.221-38.4 8-12.8 1.775-25.954 2.667-39.467 2.667-82.487 0-152.887-29.158-211.2-87.467-58.313-58.313-87.467-128.713-87.467-211.2 0-22.758 2.667-44.979 8-66.667 5.333-21.692 12.979-43.558 22.933-65.6 6.4-13.513 4.446-25.6-5.867-36.267s-22.221-12.8-35.733-6.4c-29.867 15.642-57.245 34.842-82.133 57.6-24.889 22.754-46.933 47.642-66.133 74.667-30.578 41.954-54.4 88-71.467 138.133s-25.6 102.221-25.6 156.267zM725.333 234.667c17.779 0 32.887 6.221 45.333 18.667 12.446 12.442 18.667 27.554 18.667 45.333 0 17.775-6.221 32.887-18.667 45.333-12.446 12.442-27.554 18.667-45.333 18.667s-32.887-6.225-45.333-18.667c-12.446-12.446-18.667-27.558-18.667-45.333 0-17.779 6.221-32.892 18.667-45.333 12.446-12.446 27.554-18.667 45.333-18.667zM725.333 106.667c22.046 0 42.313 5.154 60.8 15.467 18.487 10.308 33.421 24 44.8 41.067-15.646 9.242-32.354 16.354-50.133 21.333-17.779 4.975-36.267 7.467-55.467 7.467s-37.687-2.492-55.467-7.467c-17.779-4.979-34.487-12.092-50.133-21.333 11.379-17.067 26.313-30.758 44.8-41.067 18.487-10.313 38.754-15.467 60.8-15.467z" />
<glyph unicode="&#xe936;" glyph-name="gavel" d="M170.667 141.321h426.667c12.087 0 22.221-4.087 30.4-12.267 8.179-8.175 12.267-18.308 12.267-30.4 0-12.087-4.087-22.221-12.267-30.4-8.179-8.175-18.313-12.267-30.4-12.267h-426.667c-12.089 0-22.222 4.092-30.4 12.267-8.178 8.179-12.267 18.313-12.267 30.4 0 12.092 4.089 22.225 12.267 30.4 8.178 8.179 18.311 12.267 30.4 12.267zM308.267 323.721l-120.533 120.533c-16.355 16.358-24.711 36.446-25.067 60.267-0.355 23.825 7.645 43.913 24 60.268l30.933 30.933 243.2-241.068-30.933-30.933c-16.355-16.354-36.622-24.533-60.8-24.533s-44.445 8.179-60.8 24.533zM640 533.855l-241.067 243.2 30.933 30.933c16.354 16.356 36.446 24.356 60.267 24s43.913-8.711 60.267-25.067l120.533-120.533c16.354-16.355 24.533-36.622 24.533-60.8s-8.179-44.444-24.533-60.8l-30.933-30.933zM806.4 128.521l-526.933 526.935 59.733 59.733 526.933-526.935c7.821-7.821 11.733-17.775 11.733-29.867 0-12.087-3.913-22.042-11.733-29.867-7.821-7.821-17.779-11.733-29.867-11.733s-22.046 3.913-29.867 11.733z" />
<glyph unicode="&#xe937;" glyph-name="newspaper" d="M170.667 72.533c-23.467 0-43.555 8.354-60.267 25.067s-25.067 36.8-25.067 60.267v657.067c0 4.978 2.133 8.355 6.4 10.133s8.178 0.889 11.733-2.667l53.333-53.333 55.467 56.533c4.267 4.267 9.245 6.4 14.933 6.4s10.667-2.133 14.933-6.4l56.533-56.533 56.533 56.533c4.267 4.267 9.245 6.4 14.933 6.4s10.667-2.133 14.933-6.4l55.467-56.533 56.533 56.533c4.267 4.267 9.246 6.4 14.933 6.4s10.667-2.133 14.933-6.4l56.533-56.533 55.467 56.533c4.267 4.267 9.246 6.4 14.933 6.4s10.667-2.133 14.933-6.4l56.533-56.533 56.533 56.533c4.267 4.267 9.246 6.4 14.933 6.4s10.667-2.133 14.933-6.4l55.467-56.533 53.333 53.333c3.554 3.555 7.467 4.445 11.733 2.667s6.4-5.155 6.4-10.133v-657.067c0-23.467-8.354-43.554-25.067-60.267s-36.8-25.067-60.267-25.067h-682.667zM170.667 157.867h298.667v256h-298.667v-256zM554.667 157.867h298.667v85.333h-298.667v-85.333zM554.667 328.533h298.667v85.333h-298.667v-85.333zM170.667 499.2h682.667v128h-682.667v-128z" />
<glyph unicode="&#xe938;" glyph-name="chevron-left" d="M457.843 433.51l173.794-173.781c5.901-5.909 8.926-13.338 9.067-22.285 0.137-8.939-2.889-16.499-9.067-22.686-6.187-6.178-13.683-9.271-22.485-9.271s-16.299 3.093-22.485 9.271l-191.755 191.753c-3.989 3.998-6.805 8.213-8.448 12.642s-2.464 9.216-2.464 14.357c0 5.141 0.821 9.929 2.464 14.357s4.459 8.644 8.448 12.638l191.755 191.757c5.909 5.902 13.338 8.925 22.281 9.067 8.939 0.135 16.503-2.887 22.69-9.067 6.178-6.187 9.271-13.682 9.271-22.485s-3.093-16.299-9.271-22.485l-173.794-173.781z" />
<glyph unicode="&#xe939;" glyph-name="app" d="M256.001 123.081c-18.951 0-35.175 6.75-48.672 20.245-13.497 13.5-20.245 29.722-20.245 48.674s6.748 35.174 20.245 48.67c13.497 13.5 29.721 20.245 48.672 20.245s35.175-6.746 48.672-20.245c13.497-13.495 20.245-29.717 20.245-48.67s-6.749-35.174-20.245-48.674c-13.497-13.495-29.721-20.245-48.672-20.245zM512 123.081c-18.953 0-35.174 6.75-48.67 20.245-13.5 13.5-20.245 29.722-20.245 48.674s6.746 35.174 20.245 48.67c13.495 13.5 29.717 20.245 48.67 20.245s35.174-6.746 48.674-20.245c13.495-13.495 20.245-29.717 20.245-48.67s-6.75-35.174-20.245-48.674c-13.5-13.495-29.722-20.245-48.674-20.245zM768 123.081c-18.953 0-35.174 6.75-48.67 20.245-13.5 13.5-20.245 29.722-20.245 48.674s6.746 35.174 20.245 48.67c13.495 13.5 29.717 20.245 48.67 20.245s35.174-6.746 48.674-20.245c13.495-13.495 20.245-29.717 20.245-48.67s-6.75-35.174-20.245-48.674c-13.5-13.495-29.722-20.245-48.674-20.245zM256.001 379.081c-18.951 0-35.175 6.75-48.672 20.245-13.497 13.5-20.245 29.722-20.245 48.674s6.748 35.174 20.245 48.67c13.497 13.5 29.721 20.245 48.672 20.245s35.175-6.746 48.672-20.245c13.497-13.495 20.245-29.717 20.245-48.67s-6.749-35.174-20.245-48.674c-13.497-13.495-29.721-20.245-48.672-20.245zM512 379.081c-18.953 0-35.174 6.75-48.67 20.245-13.5 13.5-20.245 29.722-20.245 48.674s6.746 35.174 20.245 48.67c13.495 13.5 29.717 20.245 48.67 20.245s35.174-6.746 48.674-20.245c13.495-13.495 20.245-29.717 20.245-48.67s-6.75-35.174-20.245-48.674c-13.5-13.495-29.722-20.245-48.674-20.245zM768 379.081c-18.953 0-35.174 6.75-48.67 20.245-13.5 13.5-20.245 29.722-20.245 48.674s6.746 35.174 20.245 48.67c13.495 13.5 29.717 20.245 48.67 20.245s35.174-6.746 48.674-20.245c13.495-13.495 20.245-29.717 20.245-48.67s-6.75-35.174-20.245-48.674c-13.5-13.495-29.722-20.245-48.674-20.245zM256.001 635.082c-18.951 0-35.175 6.748-48.672 20.245s-20.245 29.721-20.245 48.672c0 18.951 6.748 35.175 20.245 48.672s29.721 20.245 48.672 20.245c18.951 0 35.175-6.748 48.672-20.245s20.245-29.721 20.245-48.672c0-18.951-6.749-35.175-20.245-48.672s-29.721-20.245-48.672-20.245zM512 635.082c-18.953 0-35.174 6.748-48.67 20.245-13.5 13.497-20.245 29.721-20.245 48.672s6.746 35.175 20.245 48.672c13.495 13.497 29.717 20.245 48.67 20.245s35.174-6.748 48.674-20.245c13.495-13.497 20.245-29.721 20.245-48.672s-6.75-35.175-20.245-48.672c-13.5-13.497-29.722-20.245-48.674-20.245zM768 635.082c-18.953 0-35.174 6.748-48.67 20.245-13.5 13.497-20.245 29.721-20.245 48.672s6.746 35.175 20.245 48.672c13.495 13.497 29.717 20.245 48.67 20.245s35.174-6.748 48.674-20.245c13.495-13.497 20.245-29.721 20.245-48.672s-6.75-35.175-20.245-48.672c-13.5-13.497-29.722-20.245-48.674-20.245z" />
<glyph unicode="&#xe93a;" glyph-name="poker-chip" d="M512 21.333c-58.961 0-114.395 11.213-166.299 33.638-51.911 22.426-97.071 52.843-135.478 91.251s-68.824 83.567-91.251 135.479c-22.426 51.904-33.639 107.337-33.639 166.298s11.213 114.395 33.639 166.299c22.426 51.911 52.843 97.071 91.251 135.478s83.567 68.824 135.478 91.25c51.904 22.426 107.338 33.639 166.299 33.639s114.394-11.213 166.298-33.639c51.913-22.426 97.071-52.843 135.479-91.25s68.826-83.567 91.251-135.478c22.426-51.904 33.638-107.338 33.638-166.299s-11.213-114.394-33.638-166.298c-22.426-51.913-52.843-97.071-91.251-135.479s-83.567-68.826-135.479-91.251c-51.904-22.426-107.337-33.638-166.298-33.638zM478.315 90.778v63.91c-28.211 2.884-54.987 9.775-80.325 20.685-25.33 10.914-48.621 24.717-69.872 41.421l-45.26-45.521c27.008-22.626 57.024-40.981 90.049-55.061 33.018-14.080 68.156-22.558 105.408-25.434zM545.685 90.778c37.252 2.876 72.32 11.354 105.195 25.434 32.883 14.080 62.827 32.435 89.826 55.061l-44.826 45.521c-21.248-16.704-44.54-30.507-69.871-41.421-25.34-10.91-52.113-17.801-80.324-20.685v-63.91zM512 219.554c63.283 0 117.175 22.255 161.685 66.761 44.506 44.51 66.761 98.402 66.761 161.685s-22.255 117.176-66.761 161.684c-44.51 44.508-98.402 66.762-161.685 66.762s-117.176-22.254-161.684-66.762c-44.508-44.508-66.762-98.401-66.762-161.684s22.254-117.175 66.762-161.685c44.508-44.506 98.401-66.761 161.684-66.761zM788.727 218.859c22.626 27.008 40.981 57.024 55.061 90.048 14.080 33.020 22.558 68.156 25.434 105.408h-63.91c-2.884-28.211-9.775-54.985-20.685-80.324-10.914-25.331-24.717-48.623-41.421-69.871l45.521-45.261zM235.273 218.859l45.519 45.956c-16.7 21.244-30.507 44.416-41.42 69.525-10.906 25.105-17.8 51.763-20.682 79.974h-63.91c2.874-37.252 11.351-72.388 25.431-105.408 14.080-33.024 32.434-63.040 55.063-90.048zM495.765 302.733l-90.522 120.913c-5.412 7.364-8.118 15.484-8.118 24.354s2.706 16.99 8.118 24.354l90.522 120.915c4.198 5.412 9.609 8.118 16.235 8.118s12.036-2.706 16.235-8.118l90.522-120.915c5.41-7.364 8.119-15.484 8.119-24.354s-2.709-16.99-8.119-24.354l-90.522-120.913c-4.198-5.414-9.609-8.119-16.235-8.119s-12.036 2.705-16.235 8.119zM154.779 481.685h63.91c2.882 28.211 9.776 54.871 20.682 79.977 10.914 25.106 24.721 48.281 41.42 69.524l-45.519 45.519c-22.628-26.999-40.983-56.941-55.063-89.824-14.080-32.876-22.557-67.942-25.431-105.195zM805.312 481.685h63.91c-2.876 37.252-11.469 72.319-25.779 105.195-14.306 32.883-32.772 62.825-55.403 89.824l-44.834-44.822c16.704-21.251 30.507-44.542 41.421-69.873 10.91-25.338 17.801-52.113 20.685-80.324zM328.814 679.209c21.243 16.7 44.418 30.507 69.524 41.42 25.106 10.906 51.765 17.8 79.977 20.682v63.91c-37.252-2.874-72.39-11.351-105.408-25.431-33.026-14.080-63.042-32.434-90.049-55.063l45.957-45.519zM695.881 679.209l44.826 44.834c-26.999 22.628-56.943 41.094-89.826 55.399-32.875 14.312-67.942 22.905-105.195 25.78v-63.91c28.211-2.882 54.985-9.776 80.324-20.682 25.331-10.914 48.623-24.721 69.871-41.42z" />
<glyph unicode="&#xe93b;" glyph-name="plus" d="M458.667 437.333h-213.333c-9.067 0-16.665 3.068-22.795 9.207-6.137 6.135-9.205 13.739-9.205 22.805 0 9.071 3.069 16.67 9.205 22.793 6.13 6.131 13.728 9.195 22.795 9.195h213.333v213.333c0 9.067 3.068 16.665 9.207 22.795 6.135 6.137 13.739 9.205 22.805 9.205 9.071 0 16.67-3.069 22.793-9.205 6.131-6.13 9.195-13.728 9.195-22.795v-213.333h213.333c9.067 0 16.666-3.068 22.797-9.207 6.135-6.135 9.203-13.739 9.203-22.805 0-9.071-3.068-16.67-9.203-22.793-6.131-6.131-13.73-9.195-22.797-9.195h-213.333v-213.333c0-9.067-3.068-16.666-9.207-22.797-6.135-6.135-13.739-9.203-22.805-9.203-9.071 0-16.67 3.068-22.793 9.203-6.131 6.131-9.195 13.73-9.195 22.797v213.333z" />
<glyph unicode="&#xe93c;" glyph-name="copy" d="M322.371 678.4v115.2c0 10.185 3.996 19.951 11.108 27.153s16.759 11.247 26.817 11.247h455.111c10.061 0 19.708-4.046 26.82-11.247s11.106-16.969 11.106-27.153v-537.6c0-10.185-3.994-19.951-11.106-27.153s-16.759-11.247-26.82-11.247h-113.779v-115.2c0-21.197-17.067-38.4-38.191-38.4h-454.579c-5.001-0.030-9.959 0.943-14.589 2.859s-8.84 4.736-12.389 8.303c-3.549 3.571-6.367 7.812-8.291 12.489-1.924 4.672-2.918 9.685-2.922 14.75l0.114 537.6c0 21.197 17.067 38.4 38.191 38.4h113.399zM398.222 678.4h303.406v-384h75.853v460.8h-379.258v-76.8zM322.371 486.4v-76.8h227.556v76.8h-227.556zM322.371 332.8v-76.8h227.556v76.8h-227.556z" />
<glyph unicode="&#xe93d;" glyph-name="edit" d="M179.434 65.067c-14.933-3.554-27.911 0.179-38.933 11.2s-14.756 24-11.2 38.933l42.667 203.733 211.2-211.2-203.733-42.667zM383.168 107.733l-211.2 211.2 488.534 488.533c16.354 16.355 36.621 24.533 60.8 24.533s44.446-8.178 60.8-24.533l89.6-89.6c16.354-16.355 24.533-36.622 24.533-60.8s-8.179-44.445-24.533-60.8l-488.534-488.533zM721.301 747.733l-441.6-441.6 90.667-90.667 441.6 441.6-90.667 90.667z" />
<glyph unicode="&#xe93e;" glyph-name="cancel" d="M512 388.267l123.733-123.733c7.821-7.821 17.779-11.733 29.867-11.733s22.046 3.913 29.867 11.733c7.821 7.821 11.733 17.779 11.733 29.867s-3.913 22.046-11.733 29.867l-123.733 123.733 123.733 123.733c7.821 7.822 11.733 17.778 11.733 29.867s-3.913 22.045-11.733 29.867c-7.821 7.822-17.779 11.733-29.867 11.733s-22.046-3.911-29.867-11.733l-123.733-123.733-123.733 123.733c-7.822 7.822-17.778 11.733-29.867 11.733s-22.045-3.911-29.867-11.733c-7.822-7.822-11.733-17.778-11.733-29.867s3.911-22.045 11.733-29.867l123.733-123.733-123.733-123.733c-7.822-7.821-11.733-17.779-11.733-29.867s3.911-22.046 11.733-29.867c7.822-7.821 17.778-11.733 29.867-11.733s22.045 3.913 29.867 11.733l123.733 123.733zM512 21.333c-59.021 0-114.489 11.2-166.4 33.6s-97.067 52.8-135.467 91.2c-38.4 38.4-68.8 83.554-91.2 135.467s-33.6 107.379-33.6 166.4c0 59.021 11.2 114.489 33.6 166.4s52.8 97.067 91.2 135.467c38.4 38.4 83.555 68.8 135.467 91.2s107.379 33.6 166.4 33.6c59.021 0 114.487-11.2 166.4-33.6s97.067-52.8 135.467-91.2c38.4-38.4 68.8-83.555 91.2-135.467s33.6-107.379 33.6-166.4c0-59.021-11.2-114.487-33.6-166.4s-52.8-97.067-91.2-135.467c-38.4-38.4-83.554-68.8-135.467-91.2s-107.379-33.6-166.4-33.6zM512 106.667c95.287 0 176 33.067 242.133 99.2s99.2 146.846 99.2 242.133c0 95.289-33.067 176-99.2 242.133s-146.846 99.2-242.133 99.2c-95.289 0-176-33.067-242.133-99.2s-99.2-146.845-99.2-242.133c0-95.287 33.067-176 99.2-242.133s146.845-99.2 242.133-99.2z" />
<glyph unicode="&#xe93f;" glyph-name="telegram" d="M298.667 413.79l83.835-241.83c0 0 10.481-22.626 21.705-22.626s178.159 180.992 178.159 180.992l185.634 373.675-466.342-227.785-2.991-62.426zM402.821 362.667l-18.497-187.763c0 0-7.742-57.532 52.48 0 60.22 57.532 117.862 101.897 117.862 101.897zM284.646 416.286l-183.080 57.092c0 0-21.88 8.495-14.835 27.759 1.45 3.972 4.376 7.356 13.128 13.163 40.566 27.062 750.837 271.391 750.837 271.391s20.053 6.468 31.881 2.166c2.927-0.867 5.559-2.462 7.629-4.623 2.074-2.16 3.507-4.808 4.156-7.673 1.28-5.060 1.813-10.265 1.587-15.466-0.055-4.499-0.623-8.669-1.054-15.209-4.326-66.801-133.781-565.354-133.781-565.354s-7.748-29.175-35.499-30.174c-6.818-0.209-13.611 0.896-19.977 3.251-6.362 2.355-12.164 5.914-17.062 10.462-54.455 44.83-242.675 165.892-284.265 192.516-0.938 0.61-1.728 1.408-2.317 2.338s-0.963 1.967-1.096 3.046c-0.582 2.807 2.607 6.281 2.607 6.281s327.738 278.811 336.459 308.081c0.674 2.267-1.877 3.386-5.299 2.393-21.769-7.664-399.119-235.73-440.767-260.904-2.998-0.866-6.166-1.050-9.252-0.538z" />
<glyph unicode="&#xe940;" glyph-name="home" d="M170.667 151.795v377.442c0 12.21 2.731 23.776 8.192 34.699 5.469 10.93 13.021 19.929 22.656 26.997l242.88 182.976c13.474 10.283 28.877 15.424 46.208 15.424s32.777-5.141 46.336-15.424l242.88-182.976c9.634-7.069 17.186-16.067 22.656-26.997 5.461-10.923 8.192-22.489 8.192-34.699v-377.442c0-17.451-6.302-32.478-18.91-45.086s-27.639-18.914-45.090-18.914h-136.205c-10.927 0-20.087 3.699-27.477 11.093-7.394 7.39-11.089 16.55-11.089 27.477v208.405c0 10.923-3.695 20.083-11.085 27.477-7.39 7.39-16.546 11.085-27.477 11.085h-85.333c-10.931 0-20.087-3.695-27.477-11.085-7.389-7.394-11.083-16.555-11.083-27.477v-208.405c0-10.927-3.698-20.087-11.093-27.477-7.389-7.394-16.547-11.093-27.477-11.093h-136.203c-17.451 0-32.48 6.306-45.088 18.914s-18.912 27.635-18.912 45.086z" />
<glyph unicode="&#xe941;" glyph-name="upload" d="M290.462 122.752c-21.552 0-39.795 7.467-54.729 22.4s-22.4 33.173-22.4 54.729v83.691c0 9.079 3.063 16.683 9.19 22.81s13.729 9.19 22.81 9.19c9.080 0 16.684-3.063 22.81-9.19s9.189-13.73 9.189-22.81v-83.691c0-3.285 1.367-6.293 4.102-9.028s5.745-4.1 9.027-4.1h485.739c3.285 0 6.293 1.365 9.028 4.1s4.105 5.743 4.105 9.028v83.691c0 9.079 3.063 16.683 9.19 22.81 6.123 6.127 13.726 9.19 22.81 9.19 9.079 0 16.683-3.063 22.805-9.19 6.127-6.127 9.195-13.73 9.195-22.81v-83.691c0-21.555-7.467-39.795-22.4-54.729s-33.178-22.4-54.733-22.4h-485.739zM501.333 639.511l-82.051-82.051c-6.345-6.345-13.88-9.477-22.605-9.395s-16.396 3.433-23.015 10.051c-6.181 6.619-9.381 14.112-9.599 22.481s2.981 15.863 9.599 22.482l132.676 132.675c3.994 3.993 8.205 6.81 12.634 8.451 4.433 1.641 9.22 2.462 14.362 2.462s9.929-0.82 14.357-2.462c4.433-1.641 8.644-4.458 12.638-8.451l132.672-132.675c6.349-6.345 9.481-13.771 9.395-22.276-0.081-8.506-3.213-16.068-9.395-22.687-6.618-6.618-14.221-10.037-22.805-10.256-8.589-0.219-16.192 2.981-22.814 9.6l-82.052 82.051v-326.401c0-9.079-3.059-16.683-9.186-22.81s-13.73-9.19-22.81-9.19c-9.079 0-16.683 3.063-22.81 9.19s-9.19 13.73-9.19 22.81v326.401z" />
<glyph unicode="&#xe942;" glyph-name="download" d="M533.333 281.109c-5.141 0-9.929 0.819-14.362 2.462-4.429 1.638-8.64 4.459-12.634 8.452l-132.676 132.672c-6.345 6.349-9.477 13.773-9.394 22.276 0.081 8.508 3.213 16.068 9.394 22.69 6.619 6.618 14.222 10.035 22.81 10.253 8.588 0.222 16.192-2.978 22.81-9.6l82.051-82.048v326.4c0 9.080 3.063 16.684 9.19 22.81s13.73 9.19 22.81 9.19c9.079 0 16.683-3.063 22.81-9.19s9.186-13.729 9.186-22.81v-326.4l82.052 82.048c6.345 6.349 13.879 9.481 22.605 9.395 8.725-0.081 16.397-3.43 23.014-10.048 6.182-6.622 9.382-14.114 9.6-22.485 0.222-8.367-2.978-15.859-9.6-22.481l-132.672-132.672c-3.994-3.994-8.205-6.814-12.638-8.452-4.429-1.643-9.216-2.462-14.357-2.462zM290.462 106.667c-21.552 0-39.795 7.467-54.729 22.4s-22.4 33.178-22.4 54.729v83.695c0 9.079 3.063 16.683 9.19 22.81s13.729 9.186 22.81 9.186c9.080 0 16.684-3.059 22.81-9.186s9.189-13.73 9.189-22.81v-83.695c0-3.281 1.367-6.289 4.102-9.024s5.745-4.105 9.027-4.105h485.739c3.285 0 6.293 1.37 9.028 4.105s4.105 5.743 4.105 9.024v83.695c0 9.079 3.063 16.683 9.19 22.81 6.123 6.127 13.726 9.186 22.81 9.186 9.079 0 16.683-3.059 22.805-9.186 6.127-6.127 9.195-13.73 9.195-22.81v-83.695c0-21.551-7.467-39.795-22.4-54.729s-33.178-22.4-54.733-22.4h-485.739z" />
<glyph unicode="&#xe943;" glyph-name="promotion" d="M191.999 244.518v-81.233c0-3.281 1.367-6.289 4.102-9.028 2.735-2.735 5.745-4.1 9.027-4.1h656.41c3.281 0 6.289 1.365 9.024 4.1 2.735 2.739 4.105 5.747 4.105 9.028v81.233h-682.668zM205.129 682.668h118.074c-3.555 6.4-6.209 13.156-7.959 20.267s-2.626 14.578-2.626 22.4c0 29.812 10.324 55.043 30.974 75.692s45.88 30.974 75.692 30.974c17.885 0 34.431-4.648 49.637-13.943 15.202-9.295 28.467-20.838 39.799-34.631l23.795-31.836 23.795 31.836c10.884 14.332 24.060 26.010 39.535 35.036 15.471 9.025 32.132 13.538 49.984 13.538 29.756 0 54.955-10.324 75.605-30.974 20.646-20.649 30.972-45.88 30.972-75.692 0-7.822-0.806-15.289-2.419-22.4s-4.335-13.867-8.162-20.267h119.714c21.551 0 39.795-7.467 54.729-22.4s22.4-33.175 22.4-54.727v-442.255c0-21.551-7.467-39.795-22.4-54.729s-33.178-22.4-54.729-22.4h-656.41c-21.552 0-39.795 7.467-54.729 22.4s-22.4 33.178-22.4 54.729v442.255c0 21.552 7.467 39.795 22.4 54.727s33.176 22.4 54.729 22.4zM191.999 354.462h682.668v251.078c0 3.282-1.37 6.291-4.105 9.026s-5.743 4.103-9.024 4.103h-233.19l68.1-93.622c5.197-7.492 7.287-15.381 6.276-23.671-1.011-8.286-5.265-15.027-12.757-20.224s-15.386-7.181-23.671-5.948c-8.286 1.229-15.027 5.372-20.224 12.429l-113.557 154.175-113.56-154.175c-5.197-7.057-11.939-11.2-20.225-12.429-8.287-1.233-16.178 0.751-23.671 5.948s-11.856 11.938-13.087 20.224c-1.231 8.29 0.752 16.179 5.949 23.671l67.447 93.622h-230.238c-3.282 0-6.292-1.367-9.027-4.103s-4.102-5.744-4.102-9.026v-251.078zM419.282 682.668c12.090 0 22.224 4.089 30.399 12.267 8.179 8.178 12.267 18.311 12.267 30.4s-4.087 22.223-12.267 30.4c-8.175 8.178-18.308 12.267-30.399 12.267-12.089 0-22.223-4.089-30.4-12.267s-12.267-18.311-12.267-30.4c0-12.089 4.089-22.222 12.267-30.4s18.311-12.267 30.4-12.267zM645.743 682.668c12.087 0 22.221 4.089 30.4 12.267 8.175 8.178 12.267 18.311 12.267 30.4s-4.092 22.223-12.267 30.4c-8.179 8.178-18.313 12.267-30.4 12.267-12.092 0-22.225-4.089-30.4-12.267-8.179-8.177-12.267-18.311-12.267-30.4s4.087-22.222 12.267-30.4c8.175-8.177 18.308-12.267 30.4-12.267z" />
<glyph unicode="&#xe944;" glyph-name="user-setting" d="M128 230.566v30.029c0 21.555 5.498 41.067 16.493 58.543s26.338 31.002 46.030 40.576c35.447 17.668 73.737 32.422 114.872 44.267 41.135 11.84 88.67 17.762 142.606 17.762h12.471c3.721 0 7.437-0.435 11.157-1.31-16.521-41.353-23.479-84.881-20.881-130.586 2.598-45.7 15.629-87.070 39.095-124.1h-297.024c-17.996 0-33.298 6.306-45.906 18.914s-18.913 27.908-18.913 45.905zM738.462 241.233c22.37 0 41.502 7.945 57.395 23.838 15.889 15.889 23.834 35.021 23.834 57.391 0 22.374-7.945 41.506-23.834 57.395-15.893 15.893-35.025 23.838-57.395 23.838-22.374 0-41.506-7.945-57.395-23.838-15.893-15.889-23.838-35.021-23.838-57.395 0-22.37 7.945-41.502 23.838-57.391 15.889-15.893 35.021-23.838 57.395-23.838zM448 490.671c-41.19 0-76.376 14.592-105.559 43.773-29.183 29.183-43.774 64.369-43.774 105.557 0 41.19 14.591 76.376 43.774 105.559s64.369 43.774 105.559 43.774c41.186 0 76.373-14.591 105.557-43.774s43.776-64.369 43.776-105.559c0-41.189-14.592-76.375-43.776-105.557-29.184-29.181-64.371-43.773-105.557-43.773zM704.162 158.857l-5.167 31.915c-10.176 3.012-19.746 6.95-28.719 11.819s-17.506 10.965-25.6 18.295l-31.757-11.652c-6.78-2.295-13.316-2.146-19.605 0.452-6.293 2.598-11.243 6.716-14.852 12.348l-5.662 10.010c-3.61 6.071-4.911 12.719-3.9 19.938 1.015 7.223 4.339 13.073 9.971 17.562l25.519 20.267c-3.063 11.046-4.595 21.935-4.595 32.653 0 10.722 1.532 21.611 4.595 32.657l-25.109 21.090c-5.632 4.484-9.024 10.159-10.172 17.024-1.152 6.865 0.081 13.333 3.691 19.405l6.319 10.667c3.61 5.632 8.521 9.749 14.729 12.348s12.702 2.748 19.486 0.452l31.343-11.652c7.821 7.33 16.286 13.359 25.395 18.091s18.748 8.606 28.924 11.614l5.167 32.572c1.314 7.223 4.676 13.035 10.095 17.438 5.414 4.403 11.733 6.605 18.953 6.605h11.324c7.219 0 13.538-2.313 18.953-6.933s8.777-10.543 10.091-17.766l4.762-31.915c10.172-3.008 19.814-6.989 28.919-11.942 9.109-4.949 17.574-11.307 25.395-19.076l30.033 11.652c7.219 2.735 14.084 2.803 20.595 0.205 6.507-2.598 11.567-6.933 15.177-13.005l6.071-10.010c3.61-6.071 4.843-12.646 3.695-19.733-1.152-7.083-4.54-12.868-10.176-17.353l-25.109-21.086c3.063-10.176 4.595-20.843 4.595-32 0-11.162-1.532-21.828-4.595-32l25.519-20.267c5.636-4.489 8.96-10.231 9.971-17.233s-0.29-13.538-3.9-19.61l-6.315-10.667c-3.614-5.632-8.452-9.749-14.524-12.348s-12.501-2.748-19.281-0.452l-31.757 11.652c-8.094-7.33-16.627-13.427-25.6-18.295-8.969-4.868-18.543-8.806-28.715-11.819l-4.762-32.572c-1.314-7.219-4.676-13.035-10.091-17.438s-11.733-6.605-18.953-6.605h-11.324c-7.219 0-13.538 2.313-18.953 6.933-5.419 4.625-8.781 10.543-10.095 17.766z" />
<glyph unicode="&#xe945;" glyph-name="pie-chart" d="M915.204 406.861h-295.744c-12.924 0-23.462-10.534-23.462-23.458 0-6.579 2.799-12.51 7.159-16.789l208.252-208.247c4.275-4.608 10.458-7.492 17.207-7.492 8.145 0 15.305 4.113 19.503 10.372 51.2 59.43 84.126 134.908 90.057 217.963 0.329 1.399 0.491 2.795 0.491 4.198 0.004 12.919-10.453 23.454-23.462 23.454zM530.15 832c-12.928-0.079-23.377-10.536-23.377-23.459v-328.674c0-13.005 10.449-23.543 23.377-23.543h328.755c12.928 0 23.458 10.539 23.458 23.543-11.605 189.151-162.978 340.524-352.213 352.132zM710.827 177.54l-242.492 242.492c-4.113 4.198-6.583 10.044-6.583 16.38l-0.085 342.506c0 12.922-10.453 23.377-23.377 23.377-196.973-12.019-352.956-175.654-352.956-375.593 0-207.838 168.497-376.414 376.333-376.414 94.822 0 181.414 35.063 247.595 92.932 5.107 4.284 8.316 10.697 8.316 17.86 0 6.34-2.556 12.186-6.75 16.461z" />
<glyph unicode="&#xe946;" glyph-name="k-sport" d="M128 896h192v-832.070l-34.714-63.93h-157.286v896zM651.277 384l244.723-384h-278.561l-105.439 165.446 139.277 218.554zM616.964 457.484l-168.964-265.484v422.409l179.199 281.591h268.801l-279.036-438.516z" />
<glyph unicode="&#xe947;" glyph-name="saba" d="M560.897 960c20.191-4.164 40.382-8.016 60.521-12.441 246.518-54.293 416.918-280.264 401.628-532.521-15.021-247.729-210.099-450.429-458.34-476.305-274.275-28.576-528.881 170.17-560.759 437.68-34.33 288.176 158.816 541.475 441.073 578.694 5.791 0.781 11.322 3.227 16.957 4.893 32.973 0 65.947 0 98.92 0zM667.955 84.179c34.643 17.85 64.8 31.072 92.454 48.358 21.235 13.222 42.522 19.834 67.302 22.541 120.314 13.325 98.867-5.99 152.032 116.134 32.71 75.060 40.384 155.693 26.976 237.42-3.392-7.080-5.478-14.367-6.995-21.811-25.926-125.505-92.922-225.343-193.824-303.116-11.162-8.64-28.122-14.522-42.157-14.054-243.542 7.808-436.009 111.603-577.712 308.321-6.209 8.641-9.652 22.592-7.982 33.055 25.304 158.507 96.312 293.746 211.771 405.872 5.009 4.841 9.652 9.995 14.452 14.992-1.67 2.134-3.287 4.268-4.957 6.351-11.009-6.975-23.635-12.285-32.66-21.238-54.468-53.981-99.025-115.25-134.033-183.442-34.382-66.995-57.704-137.633-70.381-211.915-2.661-0.729-5.322-1.458-7.983-2.134-25.304 59.343-50.608 118.737-76.277 178.861-36.313-63.039-56.608-131.179-66.26-204.056-7.148-54.189 3.235-100.154 38.921-141.485 20.869-24.154 43.408-47.942 59.060-75.373 29.217-51.174 53.948-104.896 81.651-159.706-32.399 19.002-64.486 37.792-102.103 59.808 54.104-79.488 118.225-137.786 202.12-179.533-2.974 8.166-4.487 12.333-4.696 13.011 22.799-14.054 46.904-28.89 70.956-43.725 0.939 1.664 1.93 3.277 2.87 4.941-35.582 32.64-71.217 65.331-106.799 97.971 7.043 3.904 10.486 3.539 13.669 2.598 90.364-27.43 182.241-32.531 275.423-18.944 23.113 3.386 46.122 9.318 69.234 9.939 95.896 2.605 187.352 23.373 273.912 64.134 13.043 6.144 23.424 17.907 35.008 27.123-1.254 2.080-2.509 4.16-3.757 6.189-76.646-39.456-156.941-66.886-249.338-76.934l0.102-0.154zM369.891 624.35v-58.301c34.122 0 66.156-1.354 98.034 0.364 38.399 2.083 69.286 33.471 73.617 71.524 6.156 54.345-32.713 92.657-94.747 93.022-17.582 0.104-38.452-1.978-38.712 22.54-0.261 25.82 21.13 24.726 39.86 24.622 24.625-0.104 49.304 0 73.303 0v58.145c-32.608 0-62.868 0.729-93.077-0.156-42.782-1.249-76.956-34.772-79.877-76.937-2.817-40.499 26.191-77.978 67.304-85.631 11.791-2.186 24.104-2.030 36.156-2.186 16.122-0.208 30.886-3.331 31.095-22.748 0.157-20.718-15.078-24.466-32.348-24.362-26.608 0.156-53.217 0-80.503 0l-0.105 0.104zM368.9 531.276v-201.192c41.843 0 82.747-4.008 122.555 0.989 52.643 6.611 81.651 65.85 57.756 112.855-7.304 14.316-5.843 23.477 0.731 36.907 12.835 26.288 10.017 52.732-7.2 77.614-16.696-9.734-32.035-18.688-47.269-27.537 13.826-35.761-8.817-49.036-69.286-36.386-0.678 11.66-1.356 23.528-2.139 36.751h-55.147zM724.307 622.268c-39.968-72.408-78.157-141.537-119.271-216.028 53.479 19.208 100.327 36.022 148.225 53.2 21.286-39.093 41.005-76.26 61.875-112.803 4.173-7.288 11.949-16.189 19.2-17.334 16.333-2.603 33.338-0.833 54.003-0.833-55.309 99.008-108.051 193.54-164.032 293.798zM722.579 690.564c18.579-34.356 34.957-66.63 53.587-97.499 4.64-7.652 16.173-13.742 25.51-15.512 13.824-2.603 28.486-0.676 47.219-0.676-48 87.504-93.549 170.688-141.338 257.828-33.709-61.217-65.165-118.321-99.34-180.318 41.843 13.222 77.011 24.362 114.361 36.178zM664.877 643.507c-38.137-20.77-85.771-12.91-94.484-64.184 72.993-4.269 54.991-13.535 94.484 64.184zM567.106 329.823c64.382-4.58 70.017-0.833 91.46 62.883-34.591-17.542-81.548-9.786-91.46-62.883zM756.288 141.811c-51.398-19.437-101.395-46.726-154.562-55.878-44.124-7.59-92.717 2.285-137.932 11.226-93.653 18.611-178.211 59.418-253.31 118.362-9.771 7.693-19.386 21.363-20.581 33.114-6.756 66.586-10.966 133.436-15.851 200.231-0.26 3.795 0.935 7.693 2.079 15.854 145.988-195.97 338.076-300.085 579.793-313.032 0.109-3.27 0.262-6.547 0.365-9.875zM160.637 250.611c-19.846 15.949-40.688 37.606-51.412 69.611-35.27 105.476-47.764 213.012-40.135 323.030 0.276 3.908 1.437 7.764 1.658 8.873 26.922-50.968 54.619-102.623 81.32-154.754 3.704-7.183 3.814-16.426 4.036-24.771 1.714-74.684 3.096-149.314 4.478-222.046l0.055 0.058zM508.65 67.014c-85.029-9.267-167.466-1.824-248.296 22.528-17.887 5.363-29.968 13.766-35.878 31.738-7.466 22.829-16.954 45.101-23.694 69.050 93.48-64.192 195.153-106.406 307.817-123.366l0.052 0.051zM187.412 163.546c-14.945 25.562-29.837 51.168-46.85 80.314 20.96-13.299 36.577-40.070 46.85-80.314zM421.656 430.383c17.793 0 34.093 2.5 48.956-0.918 9.376-2.194 16.514-13.267 24.665-20.308-8.364-7.909-15.502-20.053-25.411-22.707-14.49-3.878-31.004-1.020-48.211-1.020v44.953z" />
<glyph unicode="&#xe948;" glyph-name="message" d="M921.6 533.692c0 150.373-149.294 272.708-332.8 272.708-183.505 0-332.8-122.337-332.8-272.708 0-150.373 149.295-272.71 332.8-272.71 15.432 0 30.915 0.876 46.136 2.596 70.682-43.873 122.854-67.886 155.197-71.398 1.121-0.118 2.258-0.179 3.364-0.179 10.388 0 20.004 5.059 25.728 13.542 6.4 9.487 6.815 21.524 1.116 31.35-0.266 0.471-25.221 44.964-18.022 87.46 75.93 51.922 119.281 127.792 119.281 209.34zM498.42 492.505c-27.23 0-49.297 21.567-49.297 48.17 0 26.605 22.067 48.171 49.297 48.171 27.225 0 49.303-21.568 49.303-48.171s-22.077-48.17-49.303-48.17zM679.188 492.505c-27.233 0-49.306 21.567-49.306 48.17 0 26.605 22.072 48.171 49.306 48.171 27.228 0 49.3-21.568 49.3-48.171s-22.077-48.17-49.3-48.17zM320.199 278.262c-34.614 25.836-61.9 56.074-81.088 89.876-20.232 35.64-30.489 73.549-30.489 112.68 0 39.13 10.258 77.040 30.489 112.678 1.549 2.727 3.171 5.422 4.823 8.103-85.441-44.123-141.534-117.763-141.534-201.006 0-74.793 44.697-144.133 122.782-190.776 14.422-51.108-19.045-105.175-19.399-105.728-1.994-3.169-1.847-7.081 0.378-10.122 2.006-2.744 5.392-4.367 8.986-4.367 0.397 0 0.794 0.020 1.196 0.061 39.067 3.912 107.862 39.7 159.979 69.878 17.552-2.15 35.496-3.236 53.398-3.236 68.466 0 132.077 15.785 184.68 42.711-11.75-0.845-23.588-1.3-35.389-1.3-97.297 0-189.21 28.605-258.811 80.548z" />
<glyph unicode="&#xe949;" glyph-name="table-games" d="M253.426 586.871c23.332 21.953 52.269 37.044 83.625 43.611v70.717c-51.666-7.407-99.6-31.172-136.775-67.81l53.15-46.518zM372.043 704h122.46v-69.978h-122.46v69.978zM651.955 319.114c77.297 0 139.965 62.664 139.965 139.958 0 77.297-62.669 139.957-139.965 139.957h-279.912c-77.295 0-139.962-62.661-139.962-139.957s62.666-139.958 139.962-139.958h279.912zM337.051 287.662c-31.357 6.564-60.294 21.658-83.625 43.612l-53.15-46.52c37.173-36.639 85.108-60.401 136.775-67.809v70.717zM198.863 441.574h-70.857c3.351-47.365 20.496-92.713 49.318-130.447l52.905 46.295c-17.67 24.806-28.488 53.832-31.365 84.152h-0.002zM198.863 476.569c2.876 30.319 13.694 59.343 31.365 84.147l-52.905 46.301c-28.821-37.736-45.966-83.083-49.323-130.447h70.863zM825.139 441.574c-2.877-30.321-13.696-59.346-31.365-84.147l52.915-46.31c28.815 37.74 45.957 83.092 49.311 130.458h-70.861zM529.495 704h122.46v-69.978h-122.46v69.978zM793.774 560.715c17.669-24.804 28.488-53.828 31.365-84.147h70.856c-3.354 47.365-20.495 92.713-49.316 130.454l-52.905-46.307zM372.043 284.124h122.46v-69.98h-122.46v69.98zM529.495 284.124h122.46v-69.98h-122.46v69.98zM770.575 331.274c-23.332-21.955-52.27-37.043-83.625-43.612v-70.717c51.666 7.409 99.599 31.171 136.776 67.809l-53.151 46.52zM686.95 701.199v-70.717c31.355-6.57 60.288-21.66 83.625-43.611l53.151 46.518c-37.176 36.639-85.11 60.404-136.776 67.81z" />
</font>
</defs>
</svg>
